VERSION	0.00.00	1.03.00
FES_MODE	0
BPM_DEF	150.000	150.000	150.000	150.000
MET_DEF	4	4
RESOLUTION	384
CLK_DEF	384
COMPATIBLE_CODE	MA2

BPM	0	0	150.000
MET	0	0	4	4

TTP	2	240	0	C	1	M1
TAP	2	240	1
TAP	2	256	2
TAP	2	272	3
TAP	2	288	4
TAP	2	304	5
TAP	2	320	6
TAP	2	336	7
TAP	2	352	0
TAP	2	368	1
XTP	3	0	2
XTP	3	0	3
TAP	3	192	4
TAP	3	192	5
STR	3	240	3
SI_	3	240	3	96	48	0
TAP	3	240	6
TAP	3	336	4
STR	4	48	6
SUL	4	48	6	96	168	3
TAP	4	96	6
HLD	4	144	2	240
HLD	5	0	3	96
HLD	5	96	4	96
TAP	5	192	5
TAP	5	240	4
TAP	5	288	5
TAP	5	336	3
TAP	5	336	6
TAP	6	48	2
TAP	6	96	3
TAP	6	144	1
TAP	6	144	4
STR	6	240	7
SI_	6	240	7	96	48	3
TAP	6	288	7
TAP	6	336	0
TAP	7	96	1
TAP	7	96	6
TAP	7	192	4
TAP	7	192	5
TAP	7	264	3
TAP	7	264	4
TAP	7	336	2
TAP	7	336	3
TAP	8	48	1
TAP	8	96	0
TAP	8	144	2
TAP	8	144	7
TAP	8	240	6
TAP	8	288	7
TAP	8	336	0
TAP	8	336	5
TAP	9	48	2
TAP	9	96	2
TAP	9	96	3
TAP	9	144	4
TAP	9	192	4
TAP	9	192	5
TAP	9	240	3
TAP	9	288	2
TAP	9	288	3
TAP	9	336	5
HLD	10	0	4	240
HLD	10	0	5	192
TAP	10	240	5
TAP	10	288	4
TAP	10	336	3
TAP	10	336	6
TAP	11	48	2
TAP	11	96	3
TAP	11	144	1
TAP	11	144	4
TAP	11	240	6
TAP	11	288	7
TAP	11	336	0
TAP	12	0	1
TAP	12	0	3
TAP	12	48	2
TAP	12	48	3
TAP	12	192	4
TAP	12	192	6
TAP	12	240	4
STR	12	240	5
SI_	12	240	5	96	48	2
TAP	12	336	0
STR	13	48	1
SCR	13	48	1	96	48	4
TAP	13	96	1
TAP	13	144	7
TAP	13	240	5
TAP	13	288	4
TAP	13	288	5
TAP	14	0	0
TAP	14	0	7
TAP	14	96	2
TAP	14	144	2
TAP	14	144	3
STR	14	240	4
SI_	14	240	4	96	48	7
TAP	14	288	4
TAP	14	336	3
STR	15	48	3
SI_	15	48	3	96	48	0
TAP	15	96	3
TAP	15	144	4
TAP	15	240	4
TAP	15	288	3
TAP	15	288	4
TTP	16	0	2	B	0	M1
TTP	16	0	2	E	0	M1
TTP	16	0	3	B	0	M1
TTP	16	96	4	B	0	M1
TTP	16	96	5	B	0	M1
TTP	16	96	6	E	0	M1
TAP	16	192	2
STR	16	240	2
SI_	16	240	2	96	48	5
TAP	16	288	7
TAP	16	336	7
STR	17	48	6
SCL	17	48	6	96	48	3
TAP	17	96	6
TAP	17	144	0
TAP	17	240	2
TAP	17	288	2
TAP	17	288	3
TAP	18	0	0
TAP	18	0	7
TAP	18	96	5
TAP	18	144	4
TAP	18	144	5
TAP	18	240	0
TAP	18	288	0
TAP	18	336	1
TAP	18	336	7
TAP	19	48	3
TAP	19	48	4
STR	19	96	3
SI_	19	96	3	96	48	1
STR	19	96	4
SI_	19	96	4	96	48	6
TAP	19	288	7
TAP	19	336	7
STR	20	0	0
SCR	20	0	0	96	48	3
TAP	20	0	6
TAP	20	96	4
TAP	20	192	6
TAP	20	240	4
TAP	20	288	5
TAP	20	336	3
TAP	21	0	3
STR	21	48	7
SCL	21	48	7	96	48	4
TAP	21	96	7
HLD	21	144	2	96
TAP	21	240	3
TAP	21	288	2
TAP	21	288	4
HLD	22	0	5	96
TAP	22	96	4
TAP	22	144	3
TAP	22	144	5
STR	22	240	1
SCR	22	240	1	96	48	4
TAP	22	288	1
TAP	22	336	0
STR	23	48	6
SCL	23	48	6	96	48	3
TAP	23	96	6
TAP	23	144	7
TAP	23	240	0
TAP	23	288	0
TAP	23	288	7
TTP	24	0	4	B	0	M1
TTP	24	0	5	B	0	M1
TTP	24	0	6	E	0	M1
TTP	24	96	2	B	0	M1
TTP	24	96	2	E	0	M1
TTP	24	96	3	B	0	M1
TAP	24	192	7
STR	24	240	0
SI_	24	240	0	96	48	3
TAP	24	240	6
XTP	24	336	0
TAP	24	336	7
STR	25	48	5
SCR	25	48	5	96	48	0
TAP	25	96	5
TAP	25	144	4
TAP	25	240	2
TAP	25	288	2
TAP	25	288	3
TAP	26	0	0
TAP	26	0	7
TAP	26	48	6
TAP	26	96	5
TAP	26	144	4
TAP	26	144	6
TAP	26	240	1
TAP	26	288	2
TAP	26	336	1
TAP	26	336	3
TAP	27	48	0
TAP	27	48	4
STR	27	96	0
SCR	27	96	0	96	48	3
STR	27	96	4
SCR	27	96	4	96	48	7
TAP	27	144	0
TAP	27	144	4
TAP	27	288	1
TAP	27	288	5
TAP	28	0	3
TAP	28	48	3
TAP	28	96	2
TAP	28	96	4
TAP	28	144	5
TAP	28	192	4
TAP	28	192	5
TAP	28	240	3
TAP	28	288	2
TAP	28	288	3
TAP	28	336	4
TAP	29	0	4
TAP	29	0	5
TAP	29	48	2
TAP	29	96	2
TAP	29	96	3
TAP	29	144	4
TAP	29	192	3
TAP	29	192	5
TAP	29	240	2
TAP	29	288	1
TAP	29	288	3
TAP	29	336	5
STR	30	0	4
SI_	30	0	4	96	48	0
TAP	30	0	6
XTP	30	96	4
STR	30	96	7
SI_	30	96	7	96	48	3
STR	30	192	2
SCL	30	192	2	96	120	5
XTP	30	192	7
TAP	30	288	7
XHO	30	336	7	144
TAP	31	96	0
TAP	31	144	1
STR	31	144	6
SCR	31	144	6	96	48	1
TAP	31	240	3
TAP	31	288	3
TAP	31	336	4
TAP	32	48	5
TAP	32	96	4
TAP	32	96	5
TAP	32	144	3
TAP	32	192	2
TAP	32	192	3
TAP	32	240	4
TAP	32	288	4
TAP	32	288	5
TAP	32	336	2
TAP	33	0	2
TAP	33	0	3
TAP	33	48	4
TAP	33	96	3
TAP	33	96	5
TAP	33	144	2
TAP	33	192	1
TAP	33	192	3
TAP	33	240	5
TAP	33	288	4
TAP	33	288	6
TAP	33	336	3
TAP	34	0	2
TAP	34	0	4
TAP	34	48	2
TAP	34	48	4
XST	34	96	1
SI_	34	96	1	96	48	5
XTP	34	96	5
TAP	34	192	6
STR	34	240	7
SCL	34	240	7	96	96	2
TAP	34	288	0
XHO	34	336	1	144
TAP	35	96	0
TAP	35	144	1
TAP	35	192	2
TAP	35	192	7
TAP	35	240	6
STR	35	288	0
SI_	35	288	0	96	48	3
TAP	35	288	5
TAP	36	0	7
TAP	36	48	7
TAP	36	96	4
TAP	36	96	6
TAP	36	144	4
TAP	36	192	3
TAP	36	192	5
TAP	36	240	5
TAP	36	288	1
STR	36	288	4
SI_	36	288	4	96	48	7
TAP	37	0	3
TAP	37	48	3
TAP	37	96	0
TAP	37	96	2
TAP	37	144	0
TAP	37	192	1
TAP	37	192	7
TAP	37	240	1
TAP	37	288	2
TAP	37	288	6
TAP	37	336	2
STR	37	336	6
SI_	37	336	6	96	48	2
STR	38	48	1
SI_	38	48	1	96	48	4
STR	38	144	5
SI_	38	144	5	96	48	0
TAP	38	240	3
HLD	38	288	3	96
TAP	39	0	7
TAP	39	48	7
TAP	39	96	0
TAP	39	96	6
TAP	39	144	0
TAP	39	144	6
TAP	39	192	1
TAP	39	192	5
TAP	39	240	1
TAP	39	240	5
STR	39	288	2
SCL	39	288	2	96	48	7
STR	39	288	4
SCR	39	288	4	96	48	7
BRK	39	336	3
TTP	40	96	0	C	1	M1
TTP	40	96	2	B	0	M1
TTP	40	96	3	B	0	M1
TTP	40	96	4	B	0	M1
TAP	40	192	0
TAP	40	192	6
TAP	40	240	0
STR	40	240	6
SI_	40	240	6	96	48	3
STR	40	336	3
SUR	40	336	3	96	48	0
STR	41	48	1
SUR	41	48	1	96	120	4
TAP	41	96	1
TAP	41	144	7
TAP	41	240	5
STR	41	288	6
SI_	41	288	6	96	48	3
TAP	41	336	7
XST	42	0	0
SI_	42	0	0	96	48	5
XTP	42	96	0
STR	42	96	4
SI_	42	96	4	96	48	7
TAP	42	192	3
TAP	42	240	2
TAP	42	288	0
TAP	42	288	1
STR	42	336	2
SCL	42	336	2	96	120	5
TAP	42	336	7
TAP	43	48	4
HLD	43	96	4	144
TAP	43	240	3
TAP	43	288	4
TAP	43	336	5
TAP	44	0	4
TAP	44	0	6
TAP	44	48	3
TAP	44	96	2
TAP	44	144	1
STR	44	144	3
SCR	44	144	3	96	48	6
TAP	44	240	2
TAP	44	288	1
STR	44	336	0
SCR	44	336	0	96	48	3
TAP	44	336	7
TAP	45	48	7
TAP	45	96	6
TAP	45	144	4
TAP	45	144	5
TAP	45	240	0
STR	45	288	1
SUR	45	288	1	96	48	5
TAP	45	336	7
STR	46	0	6
SUL	46	0	6	96	48	2
TAP	46	96	1
TAP	46	192	0
TAP	46	192	7
TAP	46	240	1
TAP	46	240	6
TAP	46	288	2
TAP	46	288	5
TAP	46	336	3
TAP	46	336	4
STR	47	48	0
SI_	47	48	0	96	48	4
TAP	47	96	0
TAP	47	144	7
TAP	47	240	2
TAP	47	240	6
STR	47	288	3
SCL	47	288	3	96	48	0
STR	47	288	5
SCR	47	288	5	96	48	0
BRK	47	336	4
TTP	48	96	0	C	1	M1
TTP	48	96	3	B	0	M1
TTP	48	96	4	B	0	M1
TTP	48	96	5	B	0	M1
TAP	48	192	1
TAP	48	192	7
STR	48	240	1
SI_	48	240	1	96	48	4
TAP	48	240	7
STR	48	336	4
SUL	48	336	4	96	48	7
STR	49	48	6
SUL	49	48	6	96	120	3
TAP	49	96	6
TAP	49	144	0
TAP	49	240	2
STR	49	288	1
SI_	49	288	1	96	48	4
TAP	49	336	0
XST	50	0	7
SI_	50	0	7	96	48	2
STR	50	96	3
SI_	50	96	3	96	48	0
XTP	50	96	7
TAP	50	192	4
TAP	50	240	5
TAP	50	288	6
TAP	50	288	7
TAP	50	336	0
STR	50	336	5
SCR	50	336	5	96	120	2
TAP	51	48	3
HLD	51	96	3	144
TAP	51	240	4
TAP	51	288	3
TAP	51	336	2
TAP	52	0	1
TAP	52	0	3
TAP	52	48	4
TAP	52	96	5
STR	52	144	4
SCL	52	144	4	96	48	1
TAP	52	144	6
TAP	52	240	5
TAP	52	288	6
TAP	52	336	0
STR	52	336	7
SCL	52	336	7	96	48	4
TAP	53	48	0
TAP	53	96	1
STR	53	144	2
SCL	53	144	2	96	48	7
TAP	53	144	3
HLD	53	240	5	96
TAP	53	336	4
TAP	54	0	2
TAP	54	0	3
TAP	54	48	1
TAP	54	96	4
TAP	54	96	5
TAP	54	144	6
TAP	54	192	2
TAP	54	192	3
TAP	54	240	0
TAP	54	288	4
TAP	54	288	5
TAP	54	336	7
TTP	55	0	0	C	1	M1
TTP	55	0	1	B	0	M1
TTP	55	0	2	B	0	M1
TTP	55	0	5	B	0	M1
TTP	55	0	6	B	0	M1
STR	55	240	3
SCL	55	240	3	96	264	4
TAP	55	288	3
BRK	55	336	7
TAP	56	288	5
HLD	56	336	4	96
TAP	56	336	6
HLD	57	48	3	96
STR	57	144	1
SI_	57	144	1	96	48	5
TAP	57	240	7
TAP	57	288	7
TAP	58	0	4
STR	58	0	6
SI_	58	0	6	96	48	2
TAP	58	96	6
TAP	58	96	7
TAP	58	192	0
TAP	58	192	1
TAP	58	240	2
TAP	58	288	3
STR	58	336	4
SCR	58	336	4	96	96	0
STR	59	48	0
SCR	59	48	0	96	96	4
STR	59	144	4
SCR	59	144	4	96	144	2
TAP	59	240	0
XTP	60	0	3
TAP	60	96	0
TAP	60	96	7
TAP	60	144	1
STR	60	144	6
SCL	60	144	6	96	48	3
STR	60	240	1
SUR	60	240	1	96	48	5
STR	60	336	6
SUL	60	336	6	96	48	2
STR	61	48	1
SCR	61	48	1	96	48	4
TAP	61	96	1
TAP	61	144	0
TAP	61	240	6
TAP	61	240	7
TAP	61	288	4
TAP	61	336	2
TAP	62	0	0
TAP	62	0	1
TAP	62	48	3
TAP	62	96	5
HLD	62	144	6	96
TAP	62	144	7
TAP	62	240	4
TAP	62	288	2
TAP	62	336	0
HLD	62	336	1	96
TAP	63	48	3
TAP	63	96	5
STR	63	144	0
SXL	63	144	0	96	96	0
STR	63	144	7
SXR	63	144	7	96	96	7
TAP	63	240	0
TAP	63	240	7
XTP	64	0	1
XTP	64	0	6
TAP	64	48	3
TAP	64	64	4
TAP	64	80	3
TAP	64	96	4
TAP	64	144	2
TAP	64	144	5
STR	64	240	1
SI_	64	240	1	96	48	4
TAP	64	288	0
TAP	64	336	1
STR	65	48	6
SI_	65	48	6	96	48	3
TAP	65	96	7
TAP	65	144	6
TAP	65	192	1
TAP	65	240	1
TAP	65	288	7
TAP	65	304	6
TAP	65	320	5
TAP	65	336	4
TAP	65	352	3
TAP	66	32	0
TAP	66	48	7
TAP	66	96	1
TAP	66	96	6
TAP	66	144	2
TAP	66	144	5
TAP	66	192	3
TAP	66	192	4
STR	66	240	2
SI_	66	240	2	96	48	7
TAP	66	288	3
TAP	66	336	2
TAP	67	0	4
STR	67	48	5
SI_	67	48	5	96	48	0
TAP	67	96	4
TAP	67	144	5
TAP	67	192	3
TAP	67	240	4
TAP	67	288	2
TAP	67	288	5
TAP	67	336	1
TAP	67	336	6
TAP	68	0	0
TAP	68	0	7
TAP	68	48	1
TAP	68	48	6
TAP	68	96	5
TAP	68	120	4
TAP	68	144	6
TAP	68	192	0
TAP	68	192	7
TAP	68	240	1
TAP	68	240	6
TAP	68	288	2
TAP	68	312	3
TAP	68	336	1
TAP	69	0	0
TAP	69	0	7
TAP	69	48	1
TAP	69	48	6
TAP	69	96	3
TAP	69	120	4
TAP	69	144	3
TAP	69	192	2
TAP	69	192	5
STR	69	240	1
SI_	69	240	1	96	48	4
STR	69	240	6
SI_	69	240	6	96	48	3
TAP	69	288	0
TAP	69	288	7
XTP	69	336	1
XTP	69	336	6
TAP	70	48	0
TAP	70	96	0
TAP	70	96	7
TAP	70	144	6
TAP	70	192	6
TAP	70	192	7
TAP	70	240	1
TAP	70	288	0
TAP	70	288	1
TAP	70	336	7
TAP	71	0	0
TAP	71	0	7
TAP	71	48	1
TAP	71	96	2
TAP	71	96	3
TAP	71	144	6
TAP	71	192	4
TAP	71	192	5
TAP	71	240	0
TAP	71	288	2
TAP	71	288	3
TAP	71	336	7
TAP	72	0	4
TAP	72	0	6
TAP	72	48	0
TAP	72	48	7
TAP	72	96	1
TAP	72	96	3
TAP	72	144	0
TAP	72	144	7
TAP	72	192	4
TAP	72	192	6
STR	72	240	0
SI_	72	240	0	96	32	4
STR	72	240	7
SI_	72	240	7	96	32	3
TAP	72	288	1
TAP	72	288	6
TTP	72	352	0	C	1	M1

T_REC_TAP	460
T_REC_BRK	3
T_REC_XTP	13
T_REC_HLD	15
T_REC_XHO	2
T_REC_STR	73
T_REC_BST	0
T_REC_XST	3
T_REC_TTP	27
T_REC_THO	0
T_REC_SLD	76
T_REC_ALL	672
T_NUM_TAP	576
T_NUM_BRK	3
T_NUM_HLD	17
T_NUM_SLD	76
T_NUM_ALL	672
T_JUDGE_TAP	579
T_JUDGE_HLD	46
T_JUDGE_SLD	76
T_JUDGE_ALL	701
TTM_EACHPAIRS	151
TTM_SCR_TAP	288000
TTM_SCR_BRK	7800
TTM_SCR_HLD	17000
TTM_SCR_SLD	114000
TTM_SCR_ALL	426800
TTM_SCR_S	413750
TTM_SCR_SS	426500
TTM_RAT_ACV	10007

