VERSION	0.00.00	1.03.00
FES_MODE	0
BPM_DEF	150.000	150.000	150.000	150.000
MET_DEF	4	4
RESOLUTION	384
CLK_DEF	384
COMPATIBLE_CODE	MA2

BPM	0	0	150.000
MET	0	0	4	4

HLD	2	0	3	192
HLD	2	0	4	192
TAP	2	240	2
TAP	2	240	5
TAP	2	288	2
TAP	2	288	5
HLD	3	0	0	96
TAP	3	96	7
TAP	3	192	1
TAP	3	192	6
TAP	3	240	1
STR	3	240	6
SUL	3	240	6	96	240	3
TAP	4	288	2
TAP	4	288	4
TAP	5	0	1
TAP	5	48	1
TAP	5	96	3
TAP	5	192	6
TAP	5	240	6
TAP	5	288	4
HLD	6	0	2	96
TAP	6	96	3
TAP	6	192	1
TAP	6	192	4
TAP	6	288	3
TAP	6	288	6
HLD	7	0	7	96
TAP	7	96	0
TAP	7	192	1
TAP	7	192	6
STR	7	240	1
SUR	7	240	1	96	240	4
TAP	7	240	6
TAP	8	288	3
TAP	8	288	5
TAP	8	336	3
HLD	8	336	5	96
TAP	9	48	4
TAP	9	96	4
TAP	9	192	3
TAP	9	192	6
STR	9	288	1
SI_	9	288	1	96	96	5
HLD	9	288	4	384
XTP	10	288	0
XTP	10	336	0
TAP	11	48	3
TAP	11	48	5
TAP	11	144	2
TAP	11	144	6
TAP	11	240	7
TAP	11	288	7
TAP	12	0	4
TAP	12	0	6
TAP	12	48	4
TAP	12	48	6
TAP	12	192	1
TAP	12	192	3
TAP	12	240	1
TAP	12	240	3
HLD	12	336	0	96
TAP	13	48	7
TAP	13	144	2
HLD	13	144	6	96
TAP	13	240	4
TAP	13	288	4
TAP	14	0	3
TAP	14	0	5
TAP	14	96	2
HLD	14	144	2	96
HLD	14	240	0	96
HLD	14	336	7	96
HLD	15	48	5	96
TAP	15	144	4
TAP	15	240	3
TAP	15	240	6
TAP	15	288	3
TAP	15	288	6
TAP	16	0	1
TAP	16	0	4
TAP	16	96	0
TAP	16	192	3
TAP	16	192	6
TAP	16	288	7
HLD	16	336	7	96
TAP	17	48	0
HLD	17	144	1	96
TAP	17	144	5
TAP	17	240	3
TAP	17	288	3
TAP	18	0	2
TAP	18	0	4
TAP	18	96	5
HLD	18	144	5	96
STR	18	240	7
SCR	18	240	7	96	192	6
TAP	19	288	0
TAP	19	288	7
TAP	20	0	1
TAP	20	0	3
TAP	20	96	2
TAP	20	192	4
TAP	20	192	6
TAP	20	288	5
HLD	20	336	5	96
TAP	21	48	3
HLD	21	144	1	96
TAP	21	240	3
TAP	21	288	3
TAP	22	0	2
TAP	22	0	4
TAP	22	96	5
HLD	22	144	5	192
TAP	22	240	4
HLD	22	336	1	192
TAP	23	48	3
TAP	23	144	4
TAP	23	240	3
TAP	23	240	5
TAP	23	288	3
TAP	23	288	5
TAP	24	0	2
TAP	24	0	7
TAP	24	96	6
TAP	24	192	0
TAP	24	192	5
TAP	24	288	1
HLD	24	336	1	96
TAP	25	48	7
TAP	25	144	2
HLD	25	144	6	96
TAP	25	240	3
TAP	25	288	3
TAP	26	0	2
TAP	26	0	4
TAP	26	96	1
HLD	26	144	1	96
HLD	26	240	3	96
HLD	26	336	4	96
HLD	27	48	6	96
TAP	27	144	1
TAP	27	240	0
TAP	27	240	7
TAP	27	288	0
TAP	27	288	7
HLD	28	0	5	288
TAP	28	96	4
TAP	28	192	4
TAP	28	288	4
HLD	29	0	6	288
TAP	29	96	7
TAP	29	192	7
TAP	29	288	7
TAP	30	0	4
TAP	30	0	5
TAP	30	96	2
TAP	30	96	3
STR	30	192	0
SI_	30	192	0	96	96	4
STR	30	192	1
SI_	30	192	1	96	96	5
TAP	31	96	3
TAP	31	96	6
TAP	31	144	3
TAP	31	144	6
TAP	31	240	1
TAP	31	240	4
TAP	31	288	1
TAP	31	288	4
HLD	32	0	2	288
TAP	32	96	3
TAP	32	192	3
TAP	32	288	3
HLD	33	0	1	288
TAP	33	96	0
TAP	33	192	0
TAP	33	288	0
TAP	34	0	2
TAP	34	0	3
TAP	34	96	4
TAP	34	96	5
STR	34	192	6
SCL	34	192	6	96	96	3
STR	34	192	7
SCR	34	192	7	96	96	2
TAP	35	96	1
TAP	35	96	4
TAP	35	192	2
TAP	35	192	5
STR	35	288	3
SCL	35	288	3	96	96	0
TAP	35	288	6
STR	36	96	4
SCR	36	96	4	96	96	7
STR	36	288	3
SCL	36	288	3	96	96	0
STR	37	96	4
SCR	37	96	4	96	96	7
STR	37	288	3
SCL	37	288	3	96	288	4
TAP	39	0	3
TAP	39	0	4
TAP	39	48	3
TAP	39	48	4
TAP	39	96	3
TAP	39	96	4
TAP	39	192	2
TAP	39	192	5
BRK	39	288	2
BRK	39	288	5
TAP	40	0	6
TAP	40	0	7
TAP	40	96	4
TAP	40	96	5
TAP	40	192	3
TAP	40	192	6
TAP	40	240	3
TAP	40	240	6
HLD	40	336	1	96
TAP	41	48	3
TAP	41	144	0
TAP	41	144	4
TAP	41	240	6
HLD	41	288	6	96
STR	42	0	4
SI_	42	0	4	96	96	0
TAP	42	192	7
TAP	42	240	7
TAP	42	288	0
HLD	42	336	0	96
TAP	43	48	3
TAP	43	96	3
TAP	43	192	5
TAP	43	288	3
TAP	43	288	7
STR	44	0	2
SCR	44	0	2	96	96	5
STR	44	192	6
SCR	44	192	6	96	96	1
STR	45	0	2
SCR	45	0	2	96	96	5
TAP	45	192	7
TAP	45	288	7
TTP	46	0	0	B	0	M1
TTP	46	0	1	B	0	M1
TTP	46	96	6	B	0	M1
TTP	46	96	7	B	0	M1
TTP	46	192	4	B	0	M1
TTP	46	192	5	B	0	M1
TTP	46	288	0	C	1	M1
TTP	46	288	2	B	0	M1
TTP	46	288	3	B	0	M1
TAP	47	96	0
TAP	47	96	7
TAP	47	144	0
TAP	47	144	7
BRK	47	240	1
BRK	47	240	6
BRK	47	288	1
BRK	47	288	6
BRK	47	336	1
BRK	47	336	6
XTP	48	96	2
XTP	48	96	4
TAP	48	192	1
TAP	48	192	5
TAP	48	240	1
TAP	48	240	5
HLD	48	336	6	96
TAP	49	48	4
TAP	49	144	3
TAP	49	144	7
TAP	49	240	1
HLD	49	288	1	96
STR	50	0	3
SI_	50	0	3	96	96	7
TAP	50	192	0
TAP	50	240	0
TAP	50	288	7
HLD	50	336	7	96
TAP	51	48	4
TAP	51	96	4
TAP	51	192	2
TAP	51	288	0
TAP	51	288	4
STR	52	0	5
SCL	52	0	5	96	96	2
STR	52	192	1
SCL	52	192	1	96	96	6
HLD	53	0	5	96
TAP	53	96	4
TAP	53	144	4
STR	53	240	3
SCL	53	240	3	96	288	4
TAP	53	240	6
TTP	53	336	0	C	1	M1
HLD	55	0	2	192
HLD	55	0	6	192
TAP	55	288	1
HLD	55	336	1	240
TAP	56	48	3
TAP	56	96	3
HLD	56	192	6	192
TAP	56	288	4
HLD	57	0	0	192
TAP	57	96	3
HLD	57	192	7	192
TAP	57	288	4
TAP	58	0	2
TAP	58	96	1
TAP	58	96	3
TAP	58	192	5
TAP	58	288	4
TAP	58	288	6
TAP	58	336	4
TAP	58	336	6
TAP	59	48	0
TAP	59	48	7
TAP	59	144	1
TAP	59	144	3
TAP	59	240	3
TAP	59	240	4
TAP	59	336	3
TAP	59	336	5
TAP	60	0	3
TAP	60	0	5
TAP	60	96	7
TAP	60	192	2
TAP	60	192	4
TAP	60	288	0
TAP	61	0	3
TAP	61	0	5
TAP	61	96	7
TAP	61	192	2
TAP	61	192	4
HLD	61	288	0	96
TAP	62	0	7
TAP	62	96	1
TAP	62	96	6
TAP	62	144	1
TAP	62	144	6
TAP	62	240	3
TAP	62	240	5
TAP	62	336	2
TAP	62	336	6
TAP	63	48	2
TAP	63	48	4
TAP	63	144	1
TAP	63	144	5
XTP	63	240	1
XTP	63	240	5
TAP	63	336	6
HLD	64	0	6	96
TAP	64	96	4
TAP	64	144	4
TAP	64	192	3
TAP	64	240	3
TAP	64	288	5
HLD	64	336	5	96
TAP	65	48	4
TAP	65	96	3
HLD	65	144	2	96
TAP	65	240	3
TAP	65	288	4
TAP	65	336	5
TAP	66	0	5
TAP	66	48	4
TAP	66	96	3
TAP	66	144	3
TAP	66	192	4
TAP	66	240	4
TAP	66	288	2
HLD	66	336	2	96
TAP	67	48	3
TAP	67	96	4
HLD	67	144	5	96
TAP	67	240	4
TAP	67	288	4
TAP	68	0	0
TAP	68	0	5
TAP	68	96	1
TAP	68	192	2
TAP	68	192	7
TAP	68	288	6
TAP	69	0	0
TAP	69	0	5
TAP	69	96	1
TAP	69	96	4
TAP	69	144	1
TAP	69	144	4
XTP	69	240	0
XTP	69	240	7
XTP	69	336	0
XTP	69	336	7
TAP	70	48	6
TAP	70	96	4
TAP	70	96	6
TAP	70	192	1
TAP	70	192	3
TAP	70	288	4
TAP	70	288	6
TAP	71	0	2
TAP	71	0	3
TAP	71	96	4
TAP	71	96	5
TAP	71	192	2
TAP	71	192	3
TAP	71	288	4
TAP	71	288	5
TAP	72	0	1
TAP	72	0	3
TAP	72	96	4
TAP	72	96	6
TAP	72	192	2
TAP	72	192	5
TAP	72	240	2
TAP	72	240	5
BRK	72	336	0
BRK	72	336	7

T_REC_TAP	299
T_REC_BRK	10
T_REC_XTP	10
T_REC_HLD	49
T_REC_XHO	0
T_REC_STR	21
T_REC_BST	0
T_REC_XST	0
T_REC_TTP	10
T_REC_THO	0
T_REC_SLD	21
T_REC_ALL	420
T_NUM_TAP	340
T_NUM_BRK	10
T_NUM_HLD	49
T_NUM_SLD	21
T_NUM_ALL	420
T_JUDGE_TAP	350
T_JUDGE_HLD	141
T_JUDGE_SLD	21
T_JUDGE_ALL	512
TTM_EACHPAIRS	113
TTM_SCR_TAP	170000
TTM_SCR_BRK	26000
TTM_SCR_HLD	49000
TTM_SCR_SLD	31500
TTM_SCR_ALL	276500
TTM_SCR_S	267250
TTM_SCR_SS	275500
TTM_RAT_ACV	10036

