VERSION	0.00.00	1.03.00
FES_MODE	0
BPM_DEF	150.000	150.000	150.000	150.000
MET_DEF	4	4
RESOLUTION	384
CLK_DEF	384
COMPATIBLE_CODE	MA2

BPM	0	0	150.000
MET	0	0	4	4

HLD	2	0	3	192
HLD	2	0	4	192
TAP	3	0	4
TAP	3	0	5
TAP	3	192	2
TAP	3	192	3
XTP	4	0	3
XTP	4	0	4
TAP	4	96	3
TAP	4	96	4
TAP	4	192	2
TAP	4	192	5
TAP	5	0	6
TAP	5	96	6
TAP	5	192	6
TAP	5	192	7
TAP	6	0	1
TAP	6	96	1
TAP	6	192	0
TAP	6	192	1
TAP	7	0	6
TAP	7	96	6
TAP	7	192	6
TAP	7	192	7
TAP	8	0	0
TAP	8	96	0
TAP	8	192	1
TAP	8	192	7
TAP	9	0	2
TAP	9	96	2
TAP	9	192	3
TAP	9	288	3
STR	10	0	3
SI_	10	0	3	96	144	0
STR	10	0	4
SI_	10	0	4	96	144	7
XTP	11	0	1
XTP	11	0	6
XTP	11	192	2
XTP	11	192	5
HLD	12	0	5	192
TAP	12	192	4
HLD	13	0	2	192
TAP	13	192	3
HLD	14	0	5	192
TAP	14	192	4
HLD	15	0	2	96
HLD	15	0	3	96
TAP	15	192	2
TAP	15	192	3
HLD	16	0	1	192
TAP	16	192	0
HLD	17	0	6	192
TAP	17	192	7
HLD	18	0	1	192
TAP	18	192	0
HLD	19	0	0	96
HLD	19	0	7	96
TAP	19	192	1
TAP	19	192	6
TAP	20	0	5
TAP	20	96	5
TAP	20	192	4
TAP	21	0	2
TAP	21	96	2
TAP	21	192	3
TAP	22	0	5
TAP	22	96	5
TAP	22	192	4
TAP	23	0	3
TAP	23	96	3
TAP	23	192	2
TAP	23	192	4
TAP	24	0	1
TAP	24	96	1
TAP	24	192	0
TAP	25	0	6
TAP	25	96	6
TAP	25	192	7
TAP	26	0	1
TAP	26	96	1
TAP	26	192	0
TAP	27	0	7
TAP	27	96	7
TAP	27	192	0
TAP	27	192	7
TTP	28	0	6	E	0	L1
TTP	28	96	5	B	0	L1
TTP	28	192	4	B	0	L1
TTP	29	0	2	E	0	L1
TTP	29	96	2	B	0	L1
TTP	29	192	3	B	0	L1
TTP	30	0	6	E	0	L1
TTP	30	96	5	B	0	L1
TTP	30	192	4	B	0	L1
TTP	30	288	4	E	0	L1
TTP	31	0	3	B	0	L1
TTP	31	96	2	B	0	L1
TTP	31	192	2	E	0	L1
TTP	32	0	4	B	0	L1
TTP	32	96	5	B	0	L1
TTP	32	192	6	E	0	L1
TTP	33	0	3	B	0	L1
TTP	33	96	2	B	0	L1
TTP	33	192	2	E	0	L1
TTP	34	0	6	E	0	L1
TTP	34	96	6	B	0	L1
TTP	34	192	7	B	0	L1
TTP	34	288	0	E	0	L1
TTP	35	0	0	B	0	L1
TTP	35	96	1	B	0	L1
TTP	35	192	2	E	0	L1
XST	36	0	5
SCR	36	0	5	96	144	0
STR	37	0	1
SCR	37	0	1	96	144	4
XST	38	0	5
SCR	38	0	5	96	144	0
TAP	39	0	1
TAP	39	96	1
TAP	39	192	0
TAP	39	192	7
TAP	40	0	6
TAP	40	96	6
TAP	40	192	6
TAP	40	192	7
TAP	40	288	6
TAP	40	288	7
TAP	41	0	1
TAP	41	96	1
TAP	41	192	0
TAP	41	192	1
TAP	41	288	0
TAP	41	288	1
TAP	42	0	2
TAP	42	96	2
TAP	42	192	3
TAP	42	288	3
TAP	43	0	4
TAP	43	96	4
TAP	43	192	3
TAP	43	192	5
TAP	44	0	2
TAP	44	96	2
TAP	44	192	2
TAP	44	192	3
TAP	44	288	2
TAP	44	288	3
TAP	45	0	5
TAP	45	96	5
TAP	45	192	4
TAP	45	192	5
TAP	45	288	4
TAP	45	288	5
TAP	46	0	6
TAP	46	96	6
TAP	46	192	7
TAP	46	288	7
TAP	47	0	0
TAP	47	96	0
TAP	47	96	7
TAP	47	192	1
TAP	47	192	6
TAP	48	0	1
TAP	48	96	1
TAP	48	192	0
TAP	48	192	1
TAP	48	288	0
TAP	48	288	1
TAP	49	0	6
TAP	49	96	6
TAP	49	192	6
TAP	49	192	7
TAP	49	288	6
TAP	49	288	7
TAP	50	0	5
TAP	50	96	5
TAP	50	192	4
TAP	50	288	4
TAP	51	0	3
TAP	51	96	3
TAP	51	192	2
TAP	51	192	4
TAP	52	0	5
TAP	52	96	5
TAP	52	192	4
TAP	52	192	5
TAP	52	288	4
TAP	52	288	5
TAP	53	0	3
TAP	53	96	2
TAP	53	192	1
TAP	53	288	0
STR	54	0	0
SCR	54	0	0	96	144	3
STR	54	0	7
SCL	54	0	7	96	144	4
HLD	55	0	4	192
TAP	55	192	3
TAP	55	288	3
TAP	55	288	4
BST	55	336	3
SXR	55	336	3	96	528	0
BST	55	336	4
SXL	55	336	4	96	528	7
HLD	58	0	7	96
TAP	58	96	0
TAP	58	192	0
TAP	58	192	7
HLD	59	0	1	96
TAP	59	96	0
TAP	59	192	0
TAP	59	192	1
HLD	60	0	2	96
TAP	60	96	3
TAP	60	192	2
TAP	60	192	3
HLD	61	0	5	96
TAP	61	96	4
TAP	61	192	4
TAP	61	192	5
HLD	62	0	2	96
TAP	62	96	3
HLD	62	192	5	96
TAP	62	288	4
HLD	63	0	3	96
TAP	63	96	4
TAP	63	192	2
TAP	63	192	5
STR	64	0	6
SI_	64	0	6	96	144	3
STR	65	0	2
SI_	65	0	2	96	144	7
STR	66	0	6
SI_	66	0	6	96	192	2
TAP	67	0	1
TAP	67	96	1
TAP	67	192	0
TAP	67	192	7
STR	68	0	0
SCR	68	0	0	96	144	3
STR	69	0	4
SCR	69	0	4	96	144	7
TAP	70	0	0
TAP	70	96	0
TAP	70	192	1
TAP	70	288	1
TAP	71	0	2
TAP	71	96	2
TAP	71	192	3
TAP	71	288	3
TAP	72	0	4
TAP	72	96	4
TAP	72	192	3
TAP	72	192	4
TAP	72	288	2
TAP	72	288	5
XTP	72	336	2
XTP	72	336	5

T_REC_TAP	177
T_REC_BRK	0
T_REC_XTP	8
T_REC_HLD	20
T_REC_XHO	0
T_REC_STR	10
T_REC_BST	2
T_REC_XST	2
T_REC_TTP	26
T_REC_THO	0
T_REC_SLD	14
T_REC_ALL	259
T_NUM_TAP	223
T_NUM_BRK	2
T_NUM_HLD	20
T_NUM_SLD	14
T_NUM_ALL	259
T_JUDGE_TAP	225
T_JUDGE_HLD	58
T_JUDGE_SLD	14
T_JUDGE_ALL	297
TTM_EACHPAIRS	50
TTM_SCR_TAP	111500
TTM_SCR_BRK	5200
TTM_SCR_HLD	20000
TTM_SCR_SLD	21000
TTM_SCR_ALL	157700
TTM_SCR_S	152800
TTM_SCR_SS	157500
TTM_RAT_ACV	10012

