VERSION	0.00.00	1.03.00
FES_MODE	0
BPM_DEF	165.000	165.000	165.000	165.000
MET_DEF	4	4
RESOLUTION	384
CLK_DEF	384
COMPATIBLE_CODE	MA2

BPM	0	0	165.000
BPM	9	0	165.000
BPM	17	0	165.000
BPM	25	0	165.000
BPM	31	0	165.000
BPM	33	0	165.000
BPM	51	0	165.000
BPM	59	0	165.000
BPM	67	0	165.000
MET	0	0	4	4
MET	71	0	4	5
MET	72	96	4	4

STR	1	0	6
SI_	1	0	6	96	48	1
STR	1	96	2
SI_	1	96	2	96	48	5
STR	1	192	0
SSR	1	192	0	96	72	4
TAP	1	288	3
XHO	2	0	3	48
HLD	2	96	2	48
HLD	2	96	4	48
TAP	2	192	3
TAP	2	192	5
TAP	2	288	2
TAP	2	288	6
STR	2	336	2
SI_	2	336	2	96	48	7
TAP	2	336	6
TAP	3	48	3
TAP	3	144	4
STR	3	192	4
SSL	3	192	4	96	72	0
TAP	3	288	1
XHO	4	0	2	48
HLD	4	96	1	48
HLD	4	96	7	48
HLD	4	192	0	48
HLD	4	192	6	48
TAP	4	288	1
TAP	4	288	5
STR	5	0	1
SI_	5	0	1	96	48	6
STR	5	96	5
SI_	5	96	5	96	48	2
STR	5	192	7
SSL	5	192	7	96	72	3
TAP	5	288	4
XHO	6	0	4	48
HLD	6	96	3	48
HLD	6	96	5	48
TAP	6	192	2
TAP	6	192	4
TAP	6	288	1
TAP	6	288	5
TAP	6	336	1
STR	6	336	5
SI_	6	336	5	96	48	0
TAP	7	48	4
TAP	7	144	3
STR	7	192	3
SSR	7	192	3	96	72	7
TAP	7	288	6
XHO	8	0	5	48
HLD	8	96	0	48
HLD	8	96	6	48
HLD	8	192	1	48
HLD	8	192	7	48
BRK	8	288	2
BRK	8	288	6
TAP	9	0	4
TAP	9	0	5
TAP	9	48	4
TAP	9	96	6
TAP	9	144	4
TAP	9	192	5
TAP	9	240	4
TAP	9	288	6
TAP	9	336	4
STR	10	0	4
SLL	10	0	4	96	96	0
STR	10	0	5
SLR	10	0	5	96	96	1
TAP	10	48	4
TAP	10	48	5
TAP	10	240	7
HLD	10	288	7	96
HLD	11	0	4	192
TAP	11	96	5
TAP	11	144	6
HLD	11	192	7	192
TAP	11	288	6
TAP	11	336	5
TAP	12	0	4
STR	12	48	4
SI_	12	48	4	96	48	2
STR	12	144	6
SI_	12	144	6	96	48	4
TAP	12	240	1
TAP	12	288	1
TAP	13	0	2
TAP	13	0	3
TAP	13	48	3
TAP	13	96	1
TAP	13	144	3
TAP	13	192	2
TAP	13	240	3
TAP	13	288	1
TAP	13	336	3
STR	14	0	2
SLL	14	0	2	96	96	6
STR	14	0	3
SLR	14	0	3	96	96	2
TAP	14	48	2
TAP	14	48	3
TAP	14	240	0
HLD	14	288	0	96
HLD	15	0	3	192
TAP	15	96	2
TAP	15	144	1
HLD	15	192	0	192
TAP	15	288	1
TAP	15	336	2
TAP	16	0	3
STR	16	48	3
SI_	16	48	3	96	48	5
HLD	16	144	2	96
BRK	16	288	1
BRK	16	288	6
HLD	17	0	0	48
HLD	17	0	7	48
HLD	17	96	0	48
HLD	17	96	7	48
HLD	17	192	1	48
HLD	17	192	6	48
HLD	17	288	3	48
HLD	17	288	4	48
TTP	18	0	3	B	0	M1
TTP	18	0	4	B	0	M1
TTP	18	0	4	E	0	M1
TTP	18	96	1	B	0	M1
TTP	18	96	2	B	0	M1
TTP	18	96	2	E	0	M1
TTP	18	192	3	B	0	M1
TTP	18	192	4	B	0	M1
TTP	18	192	4	E	0	M1
TTP	18	288	1	B	0	M1
TTP	18	288	2	B	0	M1
TTP	18	288	2	E	0	M1
TTP	19	0	1	B	0	M1
TTP	19	0	2	B	0	M1
TTP	19	0	2	E	0	M1
TTP	19	96	3	B	0	M1
TTP	19	96	4	B	0	M1
TTP	19	96	4	E	0	M1
TTP	19	192	1	B	0	M1
TTP	19	192	2	B	0	M1
TTP	19	192	2	E	0	M1
TTP	19	288	3	B	0	M1
TTP	19	288	4	B	0	M1
TTP	19	288	4	E	0	M1
XST	20	0	1
SI_	20	0	1	96	48	6
TAP	20	96	1
STR	20	96	5
SI_	20	96	5	96	48	2
XTP	20	192	5
XTP	20	192	7
HLD	21	0	5	48
HLD	21	0	6	48
HLD	21	96	1	48
HLD	21	96	2	48
HLD	21	192	5	48
HLD	21	192	6	48
HLD	21	288	1	48
HLD	21	288	2	48
BRK	22	0	1
BRK	22	0	2
XST	22	96	3
SI_	22	96	3	96	48	0
XTP	22	96	4
XTP	22	192	3
XTP	22	192	5
XHO	22	288	1	48
XHO	22	288	2	48
HLD	23	0	0	48
HLD	23	0	7	48
STR	23	96	1
SI_	23	96	1	96	48	7
STR	23	96	4
SI_	23	96	4	96	48	0
XTP	23	192	1
XTP	23	192	4
TAP	23	336	1
TAP	23	336	6
HLD	24	0	1	48
HLD	24	0	6	48
STR	24	96	0
SI_	24	96	0	96	48	4
STR	24	96	7
SI_	24	96	7	96	48	3
BRK	24	192	0
BRK	24	192	7
TAP	25	0	3
TAP	25	0	6
TAP	25	48	3
HLD	25	48	6	528
TTP	25	144	2	E	0	M1
TTP	25	156	2	B	0	M1
TTP	25	168	3	B	0	M1
TTP	25	240	0	E	0	M1
TTP	25	252	7	B	0	M1
TTP	25	264	6	B	0	M1
TTP	25	336	2	B	0	M1
TTP	25	348	3	B	0	M1
TTP	25	360	4	E	0	M1
TTP	26	48	7	B	0	M1
TTP	26	60	6	B	0	M1
TTP	26	72	6	E	0	M1
XTP	26	144	0
XTP	26	192	0
TAP	26	288	2
TAP	26	288	4
TAP	27	0	1
TAP	27	0	5
HLD	27	48	1	528
TAP	27	48	5
TTP	27	144	6	E	0	M1
TTP	27	156	5	B	0	M1
TTP	27	168	4	B	0	M1
TTP	27	240	0	E	0	M1
TTP	27	252	0	B	0	M1
TTP	27	264	1	B	0	M1
TTP	27	336	5	B	0	M1
TTP	27	348	4	B	0	M1
TTP	27	360	4	E	0	M1
TTP	28	48	0	B	0	M1
TTP	28	60	1	B	0	M1
TTP	28	72	2	E	0	M1
XTP	28	144	7
XTP	28	192	7
TAP	28	288	3
TAP	28	288	5
TAP	29	0	0
TAP	29	0	7
TAP	29	48	0
HLD	29	48	7	480
TTP	29	144	1	E	0	M1
TTP	29	156	1	B	0	M1
TTP	29	168	2	B	0	M1
TTP	29	240	6	B	0	M1
TTP	29	252	5	B	0	M1
TTP	29	264	5	E	0	M1
TTP	29	336	1	B	0	M1
TTP	29	348	2	B	0	M1
TTP	29	360	3	E	0	M1
TTP	30	48	0	C	0	M1
TAP	30	144	0
TAP	30	192	0
TAP	30	192	7
TAP	30	288	1
TAP	30	288	6
TAP	31	0	4
TAP	31	0	5
TAP	31	48	3
TAP	31	48	7
TAP	31	192	2
TAP	31	192	3
STR	31	240	0
SI_	31	240	0	96	48	3
STR	31	240	4
SI_	31	240	4	96	48	7
BRK	31	336	0
BRK	31	336	4
TAP	32	48	2
TAP	32	48	6
TAP	32	96	1
TAP	32	96	5
HLD	32	144	0	96
HLD	32	144	4	96
TAP	32	288	2
TAP	32	288	6
TAP	32	336	2
TAP	32	336	6
STR	33	0	5
SI_	33	0	5	96	48	7
STR	33	48	0
SI_	33	48	0	96	48	3
TAP	33	96	5
STR	33	144	0
SSR	33	144	0	96	72	4
XTP	33	192	6
TAP	33	240	0
XST	33	288	7
SI_	33	288	7	96	48	3
STR	34	0	1
SI_	34	0	1	96	48	4
TAP	34	0	7
TAP	34	96	1
STR	34	96	6
SI_	34	96	6	96	48	2
STR	34	192	0
SV_	34	192	0	96	48	3
STR	34	192	6
SV_	34	192	6	96	48	3
BRK	34	288	0
BRK	34	288	6
TAP	35	48	1
TAP	35	48	3
TAP	35	96	0
TAP	35	144	7
TAP	35	192	4
TAP	35	192	6
TAP	35	240	5
TAP	35	288	2
TAP	35	288	4
TAP	35	336	1
TAP	36	0	0
TAP	36	0	7
TAP	36	48	6
TAP	36	96	4
TAP	36	96	5
TAP	36	144	3
TAP	36	192	2
TAP	36	192	4
TAP	36	240	1
TAP	36	240	5
TAP	36	288	0
TAP	36	288	6
TAP	36	336	0
TAP	36	336	6
STR	37	0	5
SCR	37	0	5	96	48	7
STR	37	48	1
SCR	37	48	1	96	48	3
TAP	37	96	5
STR	37	144	1
SXL	37	144	1	96	96	0
TAP	37	192	5
TAP	37	240	1
STR	37	288	6
SCL	37	288	6	96	48	3
STR	38	0	2
SCL	38	0	2	96	48	7
TAP	38	0	6
TAP	38	96	2
STR	38	96	6
SCL	38	96	6	96	48	3
STR	38	192	0
SV_	38	192	0	96	48	3
STR	38	192	6
SV_	38	192	6	96	48	3
BRK	38	288	0
BRK	38	288	6
TAP	39	48	1
TAP	39	48	3
TAP	39	96	0
TAP	39	144	7
TAP	39	192	4
TAP	39	192	6
TAP	39	240	5
TAP	39	288	3
TAP	39	288	4
TAP	39	336	2
XST	40	0	1
SI_	40	0	1	96	48	4
XST	40	0	5
SI_	40	0	5	96	48	0
XTP	40	96	1
XTP	40	96	5
XTP	40	192	2
XST	40	192	6
SI_	40	192	6	96	48	3
XTP	40	288	3
XTP	40	288	6
TAP	40	336	2
STR	41	0	1
SCR	41	0	1	96	48	3
STR	41	48	5
SCR	41	48	5	96	48	7
TAP	41	96	1
STR	41	144	5
SXL	41	144	5	96	96	4
TAP	41	192	1
TAP	41	240	5
STR	41	288	2
SCL	41	288	2	96	48	7
TAP	42	0	2
STR	42	0	6
SI_	42	0	6	96	48	3
STR	42	96	0
SI_	42	96	0	96	48	4
TAP	42	96	6
STR	42	192	0
SV_	42	192	0	96	48	3
STR	42	192	6
SV_	42	192	6	96	48	3
BRK	42	288	0
BRK	42	288	6
TAP	43	48	1
TAP	43	48	3
TAP	43	96	0
TAP	43	144	7
TAP	43	192	4
TAP	43	192	6
TAP	43	240	5
TAP	43	288	2
TAP	43	288	4
TAP	43	336	1
TAP	44	0	0
TAP	44	0	7
TAP	44	48	6
TAP	44	96	4
TAP	44	96	5
TAP	44	144	3
TAP	44	192	2
TAP	44	192	4
TAP	44	240	1
TAP	44	240	5
TAP	44	288	0
TAP	44	288	6
TAP	44	336	0
TAP	44	336	6
STR	45	0	1
SI_	45	0	1	96	48	3
STR	45	48	6
SI_	45	48	6	96	48	0
BRK	45	96	1
STR	45	144	6
SLL	45	144	6	96	96	7
TAP	45	192	1
TAP	45	240	6
STR	45	288	2
SI_	45	288	2	96	48	7
TAP	46	0	2
STR	46	0	6
SI_	46	0	6	96	48	3
STR	46	96	0
SI_	46	96	0	96	48	4
TAP	46	96	6
STR	46	192	0
SV_	46	192	0	96	48	3
STR	46	192	6
SV_	46	192	6	96	48	3
BRK	46	288	0
BRK	46	288	6
TAP	47	48	1
TAP	47	48	3
TAP	47	96	0
TAP	47	144	7
TAP	47	192	4
TAP	47	192	6
TAP	47	240	5
TAP	47	288	3
TAP	47	288	4
TAP	47	336	2
TAP	48	0	0
TAP	48	0	1
TAP	48	48	7
TAP	48	96	4
TAP	48	96	6
TAP	48	144	5
TAP	48	192	3
TAP	48	192	4
TAP	48	240	3
STR	48	240	4
SCR	48	240	4	96	240	3
TTP	48	336	0	C	1	M1
TTP	50	48	5	E	0	M1
TTP	50	96	4	E	0	M1
TTP	50	144	3	E	0	M1
TTP	50	192	0	C	0	M1
XTP	50	288	0
XTP	50	288	7
TAP	51	0	3
HLD	51	0	5	48
HLD	51	96	2	48
TAP	51	96	4
TAP	51	192	3
HLD	51	192	5	48
HLD	51	288	2	48
TAP	51	288	4
TTP	52	0	3	E	0	M1
HLD	52	0	5	48
HLD	52	96	2	48
TTP	52	96	4	E	0	M1
TTP	52	192	2	B	0	M1
HLD	52	192	5	48
TAP	52	288	3
TAP	52	288	6
HLD	53	0	2	48
TAP	53	0	4
TAP	53	96	3
HLD	53	96	5	48
HLD	53	192	2	48
TAP	53	192	4
TAP	53	288	3
HLD	53	288	5	48
HLD	54	0	2	48
TTP	54	0	5	E	0	M1
TTP	54	96	4	E	0	M1
HLD	54	96	5	48
HLD	54	192	2	48
TTP	54	192	5	B	0	M1
TAP	54	288	1
TAP	54	288	4
TAP	55	0	4
HLD	55	0	5	48
HLD	55	96	2	48
TAP	55	96	3
TAP	55	192	4
HLD	55	192	5	48
HLD	55	288	2	48
TAP	55	288	3
TTP	56	0	5	E	0	M1
HLD	56	0	5	48
HLD	56	96	2	48
TTP	56	96	3	E	0	M1
TTP	56	192	5	E	0	M1
HLD	56	192	5	48
TAP	56	288	4
TAP	56	288	6
TAP	57	0	4
HLD	57	0	5	48
HLD	57	96	2	48
TAP	57	96	3
TAP	57	192	4
HLD	57	192	5	48
TAP	57	288	3
TAP	57	288	6
TTP	58	0	6	E	0	M1
TTP	58	48	4	E	0	M1
TTP	58	96	0	E	0	M1
TTP	58	144	2	E	0	M1
XST	58	192	4
SI_	58	192	4	96	48	7
BRK	58	288	1
TAP	59	48	2
TAP	59	48	6
TAP	59	96	2
HLD	59	96	6	96
TAP	59	192	3
TAP	59	240	2
HLD	59	288	1	144
TAP	59	336	3
TAP	60	0	4
TAP	60	48	5
TAP	60	96	2
STR	60	96	6
SXL	60	96	6	96	144	4
TAP	60	192	4
TAP	60	288	3
TAP	61	48	1
TAP	61	48	5
HLD	61	96	1	96
TAP	61	96	5
TAP	61	192	4
TAP	61	240	5
HLD	61	288	6	144
TAP	61	336	4
TAP	62	0	3
TAP	62	48	2
TAP	62	96	1
STR	62	96	5
SLR	62	96	5	96	96	2
TAP	62	192	4
TAP	62	288	3
TAP	63	48	4
TAP	63	96	5
HLD	63	144	6	96
TAP	63	192	4
TAP	63	240	3
TAP	63	288	2
HLD	63	336	1	96
TAP	64	0	5
TAP	64	48	6
STR	64	96	7
SI_	64	96	7	96	96	4
SSL	64	96	7	96	96	3
TAP	65	48	3
TAP	65	96	2
HLD	65	144	1	96
TAP	65	192	3
TAP	65	240	4
TAP	65	288	5
HLD	65	336	6	96
TAP	66	0	5
TAP	66	48	4
TAP	66	96	3
TAP	66	144	2
XTP	66	192	1
XTP	66	192	6
XTP	66	288	2
XTP	66	288	5
XHO	67	0	3	378
XHO	67	0	4	378
XTP	68	0	2
XTP	68	0	5
XTP	68	6	1
XTP	68	6	6
XHO	68	12	0	366
XHO	68	12	7	366
XTP	69	0	1
XTP	69	0	6
XTP	69	6	2
XTP	69	6	5
XHO	69	12	3	174
XHO	69	12	4	174
XTP	69	192	2
XTP	69	192	5
XTP	69	198	1
XTP	69	198	6
XHO	69	204	0	174
XHO	69	204	7	174
XTP	70	0	1
XTP	70	0	6
XTP	70	6	2
XTP	70	6	5
XHO	70	12	3	78
XHO	70	12	4	78
XTP	70	96	2
XTP	70	96	5
XTP	70	102	1
XTP	70	102	6
XHO	70	108	0	78
XHO	70	108	7	78
XTP	70	192	1
XTP	70	192	6
XTP	70	198	2
XTP	70	198	5
XST	70	204	3
SSR	70	204	3	96	84	7
XST	70	204	4
SSL	70	204	4	96	84	0
TTP	71	288	1	B	0	M1
TTP	71	288	1	E	0	M1
TTP	71	288	6	B	0	M1
TTP	71	288	7	E	0	M1
BST	72	96	2
SI_	72	96	2	96	48	0
STR	72	144	7
SI_	72	144	7	96	48	4
TAP	72	192	2
STR	72	240	7
SSL	72	240	7	96	72	3
XTP	72	288	1
TAP	72	336	7
XST	73	0	0
SI_	73	0	0	96	48	4
TAP	73	96	0
STR	73	96	6
SI_	73	96	6	96	48	3
STR	73	192	1
SI_	73	192	1	96	48	5
TAP	73	192	6
STR	73	288	1
SV_	73	288	1	96	48	4
STR	73	288	7
SV_	73	288	7	96	48	4
BRK	74	0	1
BRK	74	0	7
TTP	74	6	0	C	1	M1
TAP	74	144	6
TAP	74	144	7
TAP	74	192	0
TAP	74	240	1
TAP	74	288	2
TAP	74	288	3
TAP	74	336	4
TAP	75	0	3
TAP	75	0	5
TAP	75	48	6
TAP	75	96	0
TAP	75	96	7
TAP	75	144	1
TAP	75	192	2
TAP	75	192	3
TAP	75	240	4
TAP	75	288	3
TAP	75	288	5
TAP	75	336	2
TAP	75	336	6
TAP	76	0	1
TAP	76	0	7
TAP	76	48	1
TAP	76	48	7
STR	76	96	2
SCL	76	96	2	96	48	0
STR	76	144	6
SCL	76	144	6	96	48	4
TAP	76	192	2
STR	76	240	6
SXR	76	240	6	96	120	0
TAP	76	288	2
TAP	76	336	6
XST	77	0	1
SCR	77	0	1	96	48	4
TAP	77	96	1
STR	77	96	5
SCR	77	96	5	96	48	0
STR	77	192	1
SCR	77	192	1	96	48	4
TAP	77	192	5
STR	77	288	1
SV_	77	288	1	96	48	4
STR	77	288	7
SV_	77	288	7	96	48	4
BRK	78	0	1
BRK	78	0	7
TTP	78	6	0	C	1	M1
TAP	78	144	6
TAP	78	144	7
TAP	78	192	0
TAP	78	240	1
TAP	78	288	2
TAP	78	288	4
TAP	78	336	5
TAP	79	0	3
TAP	79	0	6
TAP	79	48	7
XST	79	96	2
SI_	79	96	2	96	48	7
XST	79	96	6
SI_	79	96	6	96	48	3
XTP	79	192	2
XTP	79	192	6
XST	79	288	1
SI_	79	288	1	96	48	4
XTP	79	288	5
XTP	80	0	1
XTP	80	0	4
TAP	80	48	5
STR	80	96	6
SCL	80	96	6	96	48	4
STR	80	144	2
SCL	80	144	2	96	48	0
TAP	80	192	6
STR	80	240	2
SXR	80	240	2	96	120	4
TAP	80	288	6
TAP	80	336	2
XST	81	0	5
SCR	81	0	5	96	48	0
STR	81	96	1
SCR	81	96	1	96	48	4
TAP	81	96	5
TAP	81	192	1
STR	81	192	7
SI_	81	192	7	96	48	3
STR	81	288	1
SV_	81	288	1	96	48	4
STR	81	288	7
SV_	81	288	7	96	48	4
BRK	82	0	1
BRK	82	0	7
TTP	82	6	0	C	1	M1
TAP	82	144	6
TAP	82	144	7
TAP	82	192	0
TAP	82	240	1
TAP	82	288	2
TAP	82	288	3
TAP	82	336	4
TAP	83	0	3
TAP	83	0	5
TAP	83	48	6
TAP	83	96	0
TAP	83	96	7
TAP	83	144	1
TAP	83	192	2
TAP	83	192	3
TAP	83	240	4
TAP	83	288	3
TAP	83	288	5
TAP	83	336	2
TAP	83	336	6
TAP	84	0	1
TAP	84	0	7
TAP	84	48	1
TAP	84	48	7
STR	84	96	6
SI_	84	96	6	96	48	4
STR	84	144	1
SI_	84	144	1	96	48	7
BRK	84	192	6
STR	84	240	1
SLR	84	240	1	96	96	0
TAP	84	288	6
TAP	84	336	1
STR	85	0	5
SI_	85	0	5	96	48	0
STR	85	96	1
SI_	85	96	1	96	48	4
TAP	85	96	5
TAP	85	192	1
STR	85	192	7
SI_	85	192	7	96	48	3
STR	85	288	1
SV_	85	288	1	96	48	4
STR	85	288	7
SV_	85	288	7	96	48	4
BRK	86	0	1
BRK	86	0	7
TTP	86	6	0	C	1	M1
TAP	86	144	6
TAP	86	144	7
TAP	86	192	0
TAP	86	240	1
TAP	86	288	2
TAP	86	288	3
TAP	86	336	4
TAP	87	0	3
TAP	87	0	5
TAP	87	48	6
TAP	87	96	0
TAP	87	96	7
TAP	87	144	1
TAP	87	192	2
TAP	87	192	4
TAP	87	240	5
TAP	87	288	3
TAP	87	288	6
TAP	87	336	3
TAP	87	336	6
TAP	88	48	1
TAP	88	48	4
TAP	88	96	1
TAP	88	96	4
TAP	88	192	0
TAP	88	192	7
TAP	88	240	1
TAP	88	240	6
TAP	88	288	2
TAP	88	288	5
TAP	89	0	0
STR	89	0	7
SCL	89	0	7	96	672	0
THO	89	96	0	792	C	0	M1
XST	91	120	0
SSL	91	120	0	96	96	4

T_REC_TAP	356
T_REC_BRK	29
T_REC_XTP	53
T_REC_HLD	76
T_REC_XHO	18
T_REC_STR	88
T_REC_BST	1
T_REC_XST	16
T_REC_TTP	84
T_REC_THO	1
T_REC_SLD	106
T_REC_ALL	828
T_NUM_TAP	597
T_NUM_BRK	30
T_NUM_HLD	95
T_NUM_SLD	106
T_NUM_ALL	828
T_JUDGE_TAP	627
T_JUDGE_HLD	211
T_JUDGE_SLD	106
T_JUDGE_ALL	944
TTM_EACHPAIRS	211
TTM_SCR_TAP	298500
TTM_SCR_BRK	78000
TTM_SCR_HLD	95000
TTM_SCR_SLD	159000
TTM_SCR_ALL	630500
TTM_SCR_S	608700
TTM_SCR_SS	627500
TTM_RAT_ACV	10047

