VERSION	0.00.00	1.03.00
FES_MODE	0
BPM_DEF	165.000	165.000	165.000	165.000
MET_DEF	4	4
RESOLUTION	384
CLK_DEF	384
COMPATIBLE_CODE	MA2

BPM	0	0	165.000
MET	0	0	4	4
MET	71	0	4	5
MET	72	96	4	4

TAP	1	0	6
TAP	1	96	7
TAP	1	192	1
TAP	1	288	0
TAP	1	288	2
TAP	2	0	1
TAP	2	96	0
TAP	2	192	6
TAP	2	288	5
TAP	2	288	7
TAP	3	0	6
TAP	3	96	7
TAP	3	192	1
TAP	3	288	0
TAP	3	288	2
TAP	4	0	3
TAP	4	0	7
TAP	4	96	3
TAP	4	96	7
TAP	4	192	2
TAP	4	192	6
TAP	5	0	1
TAP	5	96	0
TAP	5	192	6
TAP	5	288	5
TAP	5	288	7
TAP	6	0	6
TAP	6	96	7
TAP	6	192	1
TAP	6	288	0
TAP	6	288	2
TAP	7	0	1
TAP	7	96	0
TAP	7	192	6
TAP	7	288	5
TAP	7	288	7
TAP	8	0	0
TAP	8	0	4
TAP	8	96	0
TAP	8	96	4
XTP	8	192	2
XTP	8	192	6
TAP	9	0	3
TAP	9	0	5
TAP	9	96	4
TAP	9	144	4
TAP	9	192	3
TAP	9	288	2
TAP	9	288	4
TAP	10	0	2
TAP	10	0	4
TAP	10	96	3
TAP	10	144	3
TAP	10	192	4
HLD	10	288	5	96
TAP	11	0	4
HLD	11	96	2	96
TAP	11	192	3
HLD	11	288	5	96
TAP	12	0	4
TAP	12	96	3
TAP	12	144	3
TAP	12	192	4
TAP	12	288	2
TAP	12	288	5
TAP	13	0	3
TAP	13	0	4
TAP	13	96	2
TAP	13	144	2
TAP	13	192	3
TAP	13	288	1
TAP	13	288	4
TAP	14	0	1
TAP	14	0	4
TAP	14	96	5
TAP	14	144	5
TAP	14	192	4
HLD	14	288	6	96
TAP	15	0	7
HLD	15	96	1	96
TAP	15	192	0
HLD	15	288	6	96
TAP	16	0	7
TAP	16	96	4
TAP	16	96	5
TAP	16	192	3
TAP	16	192	4
XTP	16	288	1
XTP	16	288	6
TAP	17	0	0
TAP	17	0	7
TAP	17	96	0
TAP	17	96	7
TAP	17	192	1
TAP	17	192	6
TAP	17	288	3
TAP	17	288	4
TAP	18	0	3
TAP	18	0	4
TAP	18	96	1
TAP	18	96	3
TAP	18	192	3
TAP	18	192	4
TAP	18	288	1
TAP	18	288	3
TAP	19	0	1
TAP	19	0	3
TAP	19	96	3
TAP	19	96	4
TAP	19	192	1
TAP	19	192	3
TAP	19	288	3
TAP	19	288	4
TAP	20	0	3
TAP	20	0	4
STR	20	96	2
SI_	20	96	2	96	96	5
STR	20	96	6
SI_	20	96	6	96	96	1
TAP	21	0	4
TAP	21	0	5
TAP	21	96	2
TAP	21	96	3
TAP	21	192	4
TAP	21	192	5
TAP	21	288	2
TAP	21	288	3
BRK	22	0	2
BRK	22	0	3
XTP	22	96	3
XTP	22	96	4
XTP	22	192	2
XTP	22	192	5
TAP	22	288	2
TAP	22	288	5
TAP	23	0	1
TAP	23	0	7
TAP	23	96	0
TAP	23	96	6
XTP	23	192	1
XTP	23	192	7
TAP	23	336	0
TAP	24	0	0
STR	24	96	0
SI_	24	96	0	96	96	4
STR	24	96	7
SI_	24	96	7	96	96	3
TAP	25	0	2
HLD	25	0	5	576
TTP	25	192	4	B	0	M1
TTP	25	288	6	B	0	M1
TTP	26	0	0	B	0	M1
TTP	26	96	2	B	0	M1
TTP	26	192	0	C	0	M1
STR	27	0	0
SCR	27	0	0	96	288	5
TAP	27	192	6
XTP	27	288	6
STR	28	0	7
SCL	28	0	7	96	288	2
TAP	28	192	1
XTP	28	288	1
HLD	29	0	0	384
TTP	29	192	2	E	0	M1
TTP	29	288	3	E	0	M1
TTP	30	0	4	E	0	M1
TTP	30	96	0	C	0	M1
XTP	30	192	0
XTP	30	192	7
XTP	31	0	4
XTP	31	0	6
XTP	31	48	4
XTP	31	48	6
XTP	31	192	1
XTP	31	192	3
XTP	31	240	1
XTP	31	240	3
XHO	31	336	4	96
TAP	32	48	3
TAP	32	96	3
TAP	32	144	4
BRK	32	288	0
TAP	33	0	2
TAP	33	0	3
TAP	33	96	7
TAP	33	192	4
TAP	33	192	5
TAP	33	288	0
TAP	34	0	2
TAP	34	0	3
TAP	34	96	4
TAP	34	96	5
TAP	34	192	6
TAP	34	192	7
BRK	34	288	0
BRK	34	288	5
TAP	35	0	1
TAP	35	0	4
TAP	35	96	3
TAP	35	96	6
TAP	35	192	2
TAP	35	192	4
TAP	35	288	3
TAP	35	288	5
XTP	36	0	2
XTP	36	0	6
TAP	36	96	7
TAP	36	144	7
TAP	36	192	0
TAP	36	288	1
TAP	36	288	5
TAP	37	0	2
TAP	37	0	3
TAP	37	96	7
TAP	37	192	4
TAP	37	192	5
TAP	37	288	0
TAP	38	0	2
TAP	38	0	3
TAP	38	96	4
TAP	38	96	5
TAP	38	192	6
TAP	38	192	7
BRK	38	288	0
BRK	38	288	5
TAP	39	0	1
TAP	39	48	1
TAP	39	96	3
TAP	39	192	6
TAP	39	240	6
TAP	39	288	4
BRK	40	0	0
BRK	40	0	7
TAP	40	96	2
TAP	40	96	4
BRK	40	192	0
BRK	40	192	7
TAP	40	288	3
TAP	40	288	5
TAP	41	0	4
TAP	41	0	6
TAP	41	96	0
TAP	41	192	1
TAP	41	192	3
TAP	41	288	7
TAP	42	0	4
TAP	42	0	5
TAP	42	96	2
TAP	42	96	3
TAP	42	192	0
TAP	42	192	1
BRK	42	288	2
BRK	42	288	7
TAP	43	0	1
TAP	43	0	4
TAP	43	96	3
TAP	43	96	6
TAP	43	192	2
TAP	43	192	4
TAP	43	288	3
TAP	43	288	5
XTP	44	0	3
XTP	44	0	4
TAP	44	96	2
TAP	44	144	2
TAP	44	192	3
TAP	44	288	2
TAP	44	288	4
TAP	45	0	3
TAP	45	0	5
BRK	45	96	0
BRK	45	96	7
TAP	45	192	2
TAP	45	192	4
TAP	45	288	0
TAP	45	288	7
TAP	46	0	4
TAP	46	0	5
TAP	46	96	6
TAP	46	96	7
TAP	46	192	0
TAP	46	192	1
BRK	46	288	2
BRK	46	288	7
TAP	47	0	1
TAP	47	48	1
TAP	47	96	4
TAP	47	144	4
TAP	47	192	3
TAP	47	240	3
TAP	47	288	5
TAP	47	336	5
TAP	48	0	4
TAP	48	0	5
TAP	48	96	1
TAP	48	96	7
TAP	48	192	0
TAP	48	192	6
HLD	48	240	0	96
STR	48	240	6
SCL	48	240	6	96	240	1
XTP	50	48	0
XTP	50	48	7
XTP	50	96	0
XTP	50	96	7
BRK	50	192	2
BRK	50	192	5
TAP	50	288	2
TAP	50	288	5
TAP	51	48	1
HLD	51	96	1	96
HLD	51	192	3	96
HLD	51	288	4	96
HLD	52	0	6	96
STR	52	96	7
SI_	52	96	7	96	96	3
TAP	53	48	6
HLD	53	96	6	96
HLD	53	192	4	96
HLD	53	288	3	96
HLD	54	0	1	96
STR	54	96	0
SI_	54	96	0	96	96	4
TAP	55	48	2
HLD	55	96	2	96
HLD	55	192	0	96
HLD	55	288	7	96
HLD	56	0	5	96
STR	56	96	4
SI_	56	96	4	96	96	0
TAP	57	48	5
HLD	57	96	5	96
HLD	57	192	7	96
HLD	57	288	0	96
HLD	58	0	2	96
TAP	58	96	3
TAP	58	192	0
TAP	58	192	7
TAP	58	288	2
TAP	58	288	5
HLD	59	0	3	48
HLD	59	0	4	48
HLD	59	96	3	48
HLD	59	96	4	48
HLD	59	192	2	48
HLD	59	192	3	48
HLD	59	288	2	48
HLD	59	288	3	48
HLD	60	0	1	48
HLD	60	0	4	48
HLD	60	96	1	48
HLD	60	96	4	48
TAP	60	192	2
TAP	60	192	3
TAP	60	288	2
TAP	60	288	3
HLD	61	0	3	48
HLD	61	0	4	48
HLD	61	96	3	48
HLD	61	96	4	48
HLD	61	192	4	48
HLD	61	192	5	48
HLD	61	288	4	48
HLD	61	288	5	48
HLD	62	0	3	48
HLD	62	0	6	48
HLD	62	96	3	48
HLD	62	96	6	48
TAP	62	192	4
TAP	62	192	5
TAP	62	288	4
TAP	62	288	5
HLD	63	0	3	48
HLD	63	0	4	48
HLD	63	96	2	48
HLD	63	96	3	48
HLD	63	192	3	48
HLD	63	192	4	48
HLD	63	288	4	48
HLD	63	288	5	48
HLD	64	0	3	48
HLD	64	0	4	48
HLD	64	96	2	48
HLD	64	96	3	48
TAP	64	192	1
TAP	64	192	4
TAP	64	288	1
TAP	64	288	4
HLD	65	0	3	48
HLD	65	0	4	48
HLD	65	96	3	48
HLD	65	96	4	48
HLD	65	192	2	48
HLD	65	192	5	48
HLD	65	288	2	48
HLD	65	288	5	48
HLD	66	0	3	48
HLD	66	0	6	48
HLD	66	96	2	48
HLD	66	96	5	48
TAP	66	192	1
TAP	66	192	4
TAP	66	288	2
TAP	66	288	3
XHO	67	0	1	288
XHO	67	0	4	288
XHO	68	0	0	288
XHO	68	0	7	288
XHO	69	0	4	96
XHO	69	0	6	96
XHO	69	192	0	96
XHO	69	192	7	96
XTP	70	0	2
XTP	70	0	3
XTP	70	96	0
XTP	70	96	7
STR	70	192	1
SUL	70	192	1	96	96	3
STR	70	192	6
SUR	70	192	6	96	96	4
TTP	71	288	1	B	0	M1
TTP	71	288	2	E	0	M1
TTP	71	288	6	B	0	M1
TTP	71	288	6	E	0	M1
BRK	72	96	0
BRK	72	96	7
TAP	72	192	0
TAP	72	192	7
TAP	72	288	1
TAP	72	288	3
TAP	73	0	0
TAP	73	0	7
TAP	73	96	4
TAP	73	96	5
TAP	73	192	2
TAP	73	192	3
TAP	73	288	0
TAP	73	288	1
BRK	74	0	2
BRK	74	0	7
TAP	74	96	0
TAP	74	96	6
TAP	74	192	1
TAP	74	192	7
TAP	74	288	0
TAP	74	288	5
TAP	75	0	2
TAP	75	0	7
XTP	75	96	1
XTP	75	96	4
TAP	75	192	2
TAP	75	240	2
TAP	75	288	3
TAP	76	0	1
TAP	76	0	4
TAP	76	96	2
TAP	76	96	3
TAP	76	192	0
TAP	76	192	7
TAP	76	288	4
TAP	76	288	5
TAP	77	0	0
TAP	77	0	7
TAP	77	96	2
TAP	77	96	3
TAP	77	192	0
TAP	77	192	1
TAP	77	288	6
TAP	77	288	7
BRK	78	0	1
BRK	78	0	4
TAP	78	96	5
TAP	78	144	5
TAP	78	192	4
TAP	78	288	2
TAP	78	336	2
TAP	79	0	3
BRK	79	96	6
BRK	79	96	7
TAP	79	192	3
TAP	79	192	5
BRK	79	288	0
BRK	79	288	1
TAP	80	0	2
TAP	80	0	4
TAP	80	96	3
TAP	80	96	5
TAP	80	192	0
TAP	80	192	1
TAP	80	288	2
TAP	80	288	4
TAP	81	0	6
TAP	81	0	7
TAP	81	96	4
TAP	81	96	5
TAP	81	192	2
TAP	81	192	3
TAP	81	288	0
TAP	81	288	1
BRK	82	0	3
BRK	82	0	6
TAP	82	96	1
TAP	82	96	7
TAP	82	192	0
TAP	82	192	5
TAP	82	288	2
TAP	82	288	6
TAP	83	0	0
TAP	83	0	4
XTP	83	96	3
XTP	83	96	6
TAP	83	192	2
TAP	83	240	2
TAP	83	288	3
TAP	84	0	0
TAP	84	0	5
TAP	84	96	2
TAP	84	96	3
BRK	84	192	0
BRK	84	192	7
TAP	84	288	4
TAP	84	288	5
TAP	85	0	0
TAP	85	0	7
TAP	85	96	1
TAP	85	96	6
TAP	85	192	2
TAP	85	192	3
TAP	85	288	4
TAP	85	288	5
BRK	86	0	1
BRK	86	0	7
TAP	86	96	6
TAP	86	144	6
TAP	86	192	3
TAP	86	240	3
TAP	86	288	4
TAP	86	336	4
TAP	87	0	1
TAP	87	48	1
TAP	87	96	0
TAP	87	96	7
TAP	87	144	0
TAP	87	144	7
TAP	87	192	0
TAP	87	192	7
TAP	87	288	2
TAP	87	288	5
TAP	87	336	2
STR	87	336	5
SCR	87	336	5	96	432	3
BRK	88	48	3
THO	89	96	0	816	C	0	M1

T_REC_TAP	357
T_REC_BRK	36
T_REC_XTP	38
T_REC_HLD	73
T_REC_XHO	9
T_REC_STR	13
T_REC_BST	0
T_REC_XST	0
T_REC_TTP	13
T_REC_THO	1
T_REC_SLD	13
T_REC_ALL	553
T_NUM_TAP	421
T_NUM_BRK	36
T_NUM_HLD	83
T_NUM_SLD	13
T_NUM_ALL	553
T_JUDGE_TAP	457
T_JUDGE_HLD	165
T_JUDGE_SLD	13
T_JUDGE_ALL	635
TTM_EACHPAIRS	198
TTM_SCR_TAP	210500
TTM_SCR_BRK	93600
TTM_SCR_HLD	83000
TTM_SCR_SLD	19500
TTM_SCR_ALL	406600
TTM_SCR_S	390950
TTM_SCR_SS	403000
TTM_RAT_ACV	10089

