VERSION	0.00.00	1.03.00
FES_MODE	0
BPM_DEF	165.000	165.000	165.000	165.000
MET_DEF	4	4
RESOLUTION	384
CLK_DEF	384
COMPATIBLE_CODE	MA2

BPM	0	0	165.000
MET	0	0	4	4
MET	71	0	4	5
MET	72	96	4	4

TAP	1	0	5
TAP	1	96	5
TAP	1	192	4
TAP	1	288	4
TAP	2	0	3
TAP	2	96	3
TAP	2	192	2
TAP	2	192	4
TAP	3	0	1
TAP	3	96	1
TAP	3	192	0
TAP	3	288	0
TAP	4	0	7
TAP	4	96	7
TAP	4	192	0
TAP	4	192	7
TAP	5	0	6
TAP	5	96	6
TAP	5	192	7
TAP	5	288	7
TAP	6	0	0
TAP	6	96	0
TAP	6	192	1
TAP	6	192	7
TAP	7	0	2
TAP	7	96	2
TAP	7	192	3
TAP	7	288	3
TAP	8	0	4
TAP	8	96	4
BRK	8	192	3
BRK	8	192	5
HLD	9	0	2	192
TAP	9	192	3
HLD	10	0	5	192
TAP	10	192	4
HLD	11	0	2	192
TAP	11	192	3
HLD	12	0	4	96
HLD	12	0	5	96
TAP	12	192	4
TAP	12	192	5
HLD	13	0	6	192
TAP	13	192	7
HLD	14	0	1	192
TAP	14	192	0
HLD	15	0	6	192
TAP	15	192	7
HLD	16	0	0	96
HLD	16	0	7	96
TAP	16	192	0
TAP	16	192	7
TTP	17	0	6	E	0	L1
TTP	17	96	5	B	0	L1
TTP	17	192	4	B	0	L1
TTP	18	0	2	E	0	L1
TTP	18	96	2	B	0	L1
TTP	18	192	3	B	0	L1
TTP	19	0	6	B	0	L1
TTP	19	96	5	B	0	L1
TTP	19	192	5	E	0	L1
TTP	20	0	1	B	0	L1
TTP	20	96	2	B	0	L1
TTP	20	192	3	E	0	L1
TTP	21	0	5	B	0	L1
TTP	21	96	6	B	0	L1
TTP	21	192	7	E	0	L1
TTP	22	0	2	B	0	L1
TTP	22	96	1	B	0	L1
TTP	22	192	1	E	0	L1
TTP	23	0	6	E	0	L1
TTP	23	96	6	B	0	L1
TTP	23	192	7	B	0	L1
TTP	24	0	2	E	0	L1
TTP	24	96	1	B	0	L1
TTP	24	192	0	B	0	L1
XST	25	0	6
SI_	25	0	6	96	144	2
STR	26	0	1
SI_	26	0	1	96	144	4
STR	27	0	5
SI_	27	0	5	96	144	0
TAP	28	0	1
TAP	28	96	1
TAP	28	192	0
TAP	28	192	7
STR	29	0	7
SI_	29	0	7	96	144	4
STR	30	0	3
SI_	30	0	3	96	144	0
XTP	31	0	6
XTP	31	192	0
XTP	31	192	1
XTP	32	0	0
XTP	32	0	7
XTP	32	96	1
XTP	32	96	6
TAP	33	0	5
TAP	33	96	5
TAP	33	192	4
TAP	33	192	5
TAP	33	288	4
TAP	33	288	5
TAP	34	0	2
TAP	34	96	2
TAP	34	192	2
TAP	34	192	3
BRK	34	288	2
BRK	34	288	3
TAP	35	0	1
TAP	35	96	1
TAP	35	192	0
TAP	35	288	0
TAP	36	0	7
TAP	36	96	7
TAP	36	192	0
TAP	36	192	6
TAP	37	0	1
TAP	37	96	1
TAP	37	192	0
TAP	37	192	1
TAP	37	288	0
TAP	37	288	1
TAP	38	0	6
TAP	38	96	6
TAP	38	192	6
TAP	38	192	7
BRK	38	288	6
BRK	38	288	7
TAP	39	0	5
TAP	39	96	5
TAP	39	192	4
TAP	39	288	4
XTP	40	0	3
XTP	40	0	4
XTP	40	96	2
XTP	40	96	5
XTP	40	192	1
XTP	40	192	6
TAP	41	0	2
TAP	41	96	2
TAP	41	192	2
TAP	41	192	3
TAP	41	288	2
TAP	41	288	3
TAP	42	0	5
TAP	42	96	5
TAP	42	192	4
TAP	42	192	5
BRK	42	288	4
BRK	42	288	5
TAP	43	0	6
TAP	43	96	6
TAP	43	192	7
TAP	43	288	7
TAP	44	0	0
TAP	44	96	0
TAP	44	192	1
TAP	44	192	7
TAP	45	0	6
XTP	45	96	6
TAP	45	192	6
TAP	45	192	7
TAP	45	288	6
TAP	45	288	7
TAP	46	0	1
TAP	46	96	1
TAP	46	192	0
TAP	46	192	1
BRK	46	288	0
BRK	46	288	1
TAP	47	0	2
TAP	47	96	3
TAP	47	192	4
TAP	47	288	5
TAP	48	0	6
TAP	48	96	7
TAP	48	192	0
TAP	48	288	1
STR	49	0	2
SCR	49	0	2	96	144	5
XTP	50	0	3
XTP	50	0	4
XTP	50	96	3
XTP	50	96	4
XTP	50	192	2
XTP	50	192	5
TTP	51	0	6	B	0	L1
TTP	51	0	7	E	0	L1
TTP	51	192	4	B	0	L1
TTP	51	192	5	E	0	L1
TTP	52	0	3	E	0	L1
TTP	52	96	2	B	0	L1
TTP	52	192	1	B	0	L1
TTP	53	0	6	B	0	L1
TTP	53	0	7	E	0	L1
TTP	53	192	4	B	0	L1
TTP	53	192	5	E	0	L1
TTP	54	0	1	B	0	L1
TTP	54	96	2	B	0	L1
TTP	54	192	3	E	0	L1
TTP	55	0	6	B	0	L1
TTP	55	0	7	E	0	L1
TTP	55	192	4	B	0	L1
TTP	55	192	5	E	0	L1
TTP	56	0	3	E	0	L1
TTP	56	96	2	B	0	L1
TTP	56	192	1	B	0	L1
TTP	57	0	6	B	0	L1
TTP	57	0	7	E	0	L1
TTP	57	192	4	B	0	L1
TTP	57	192	5	E	0	L1
TTP	58	0	1	B	0	L1
TTP	58	96	2	B	0	L1
TTP	58	192	3	E	0	L1
XST	59	0	5
SI_	59	0	5	96	144	0
TAP	60	0	1
TAP	60	96	1
TAP	60	192	0
TAP	60	192	1
STR	61	0	2
SI_	61	0	2	96	144	7
TAP	62	0	6
TAP	62	96	6
TAP	62	192	6
TAP	62	192	7
STR	63	0	5
SI_	63	0	5	96	144	0
TAP	64	0	1
TAP	64	96	1
TAP	64	192	0
TAP	64	192	1
STR	65	0	2
SI_	65	0	2	96	144	7
TAP	66	0	6
TAP	66	96	6
TAP	66	192	7
TAP	66	288	7
HLD	67	0	0	192
HLD	67	0	7	192
HLD	68	0	1	192
HLD	68	0	6	192
HLD	69	0	2	96
HLD	69	0	5	96
HLD	69	192	3	96
HLD	69	192	4	96
TAP	70	0	3
TAP	70	0	4
TAP	70	96	2
TAP	70	96	5
TAP	70	192	1
TAP	70	192	6
TAP	70	288	0
TAP	70	288	7
XTP	71	288	1
XTP	71	288	6
XTP	72	96	2
TAP	72	192	2
TAP	72	192	3
TAP	72	288	2
TAP	73	0	2
TAP	73	0	3
TAP	73	96	5
TAP	73	192	4
TAP	73	192	5
TAP	73	288	5
BRK	74	0	4
BRK	74	0	5
TAP	74	96	6
TAP	74	192	6
TAP	74	288	7
TAP	75	0	7
TAP	75	96	0
TAP	75	192	0
TAP	75	288	1
TAP	75	288	7
TAP	76	96	6
TAP	76	192	6
TAP	76	192	7
TAP	76	288	6
TAP	77	0	6
TAP	77	0	7
TAP	77	96	1
TAP	77	192	0
TAP	77	192	1
TAP	77	288	1
BRK	78	0	0
BRK	78	0	1
TAP	78	96	2
TAP	78	192	2
TAP	78	288	3
TAP	79	0	3
XTP	79	96	3
XTP	79	96	4
XTP	79	192	2
XTP	79	192	5
XTP	79	288	1
XTP	79	288	6
TAP	80	96	5
TAP	80	192	4
TAP	80	192	5
TAP	80	288	5
TAP	81	0	4
TAP	81	0	5
TAP	81	96	2
TAP	81	192	2
TAP	81	192	3
TAP	81	288	2
BRK	82	0	2
BRK	82	0	3
TAP	82	96	1
TAP	82	192	1
TAP	82	288	0
TAP	83	0	0
TAP	83	96	7
TAP	83	192	7
TAP	83	288	0
TAP	83	288	6
TAP	84	96	1
XTP	84	192	0
XTP	84	192	1
TAP	84	288	1
TAP	85	0	0
TAP	85	0	1
TAP	85	96	6
TAP	85	192	6
TAP	85	192	7
TAP	85	288	6
BRK	86	0	6
BRK	86	0	7
TAP	86	96	5
TAP	86	192	4
TAP	86	288	3
TAP	87	0	2
TAP	87	96	1
TAP	87	192	0
TAP	87	288	7
TAP	88	0	6
STR	88	96	5
SCL	88	96	5	96	144	2
THO	89	96	0	768	C	0	L1

T_REC_TAP	200
T_REC_BRK	18
T_REC_XTP	31
T_REC_HLD	18
T_REC_XHO	0
T_REC_STR	9
T_REC_BST	0
T_REC_XST	2
T_REC_TTP	52
T_REC_THO	1
T_REC_SLD	11
T_REC_ALL	342
T_NUM_TAP	294
T_NUM_BRK	18
T_NUM_HLD	19
T_NUM_SLD	11
T_NUM_ALL	342
T_JUDGE_TAP	312
T_JUDGE_HLD	72
T_JUDGE_SLD	11
T_JUDGE_ALL	395
TTM_EACHPAIRS	69
TTM_SCR_TAP	147000
TTM_SCR_BRK	46800
TTM_SCR_HLD	19000
TTM_SCR_SLD	16500
TTM_SCR_ALL	229300
TTM_SCR_S	220700
TTM_SCR_SS	227500
TTM_RAT_ACV	10079

