VERSION	0.00.00	1.03.00
FES_MODE	0
BPM_DEF	165.000	165.000	165.000	165.000
MET_DEF	4	4
RESOLUTION	384
CLK_DEF	384
COMPATIBLE_CODE	MA2

BPM	0	0	165.000
MET	0	0	4	4
MET	71	0	4	5
MET	72	96	4	4

TAP	5	0	0
TAP	6	0	0
TAP	7	0	7
XTP	8	0	0
XTP	8	0	7
TAP	9	0	7
TAP	10	0	7
TAP	11	0	6
TAP	12	0	6
TAP	13	0	5
TAP	14	0	5
TAP	15	0	4
TAP	16	0	3
TAP	16	0	4
TAP	17	0	3
TAP	17	192	3
TAP	18	0	3
TAP	19	0	2
TAP	19	192	2
TAP	20	0	2
TAP	21	0	1
TAP	21	192	1
TAP	22	0	1
TAP	23	0	0
TAP	23	192	0
XTP	24	0	0
XTP	24	0	7
STR	25	0	7
SI_	25	0	7	96	288	4
STR	27	0	0
SI_	27	0	0	96	288	3
STR	29	0	4
SI_	29	0	4	96	288	7
XHO	31	0	0	336
XHO	31	0	7	336
XTP	33	0	0
TAP	33	192	0
TAP	34	0	1
TAP	34	192	1
TAP	35	0	2
TAP	36	0	2
TAP	36	0	3
TAP	37	0	4
TAP	37	192	4
TAP	38	0	5
TAP	38	192	5
TAP	39	0	6
BRK	40	0	0
BRK	40	0	7
TAP	41	0	6
TAP	41	192	6
TAP	42	0	5
TAP	42	192	5
TAP	43	0	4
TAP	44	0	3
TAP	44	0	4
TAP	45	0	2
TAP	45	192	2
TAP	46	0	1
TAP	46	192	1
TAP	47	0	0
XTP	48	0	0
XTP	48	0	7
HLD	49	0	0	384
HLD	49	0	7	384
TTP	51	0	0	B	0	L1
TTP	52	0	7	B	0	L1
TTP	53	0	1	B	0	L1
TTP	54	0	6	B	0	L1
TTP	55	0	2	B	0	L1
TTP	56	0	5	B	0	L1
TTP	57	0	3	B	0	L1
TTP	58	0	0	C	0	L1
HLD	59	0	6	384
HLD	59	0	7	384
HLD	61	0	4	384
HLD	61	0	5	384
HLD	63	0	2	384
HLD	63	0	3	384
HLD	65	0	0	384
HLD	65	0	1	384
HLD	67	0	0	384
HLD	67	0	7	384
HLD	69	0	1	384
HLD	69	0	6	384
XTP	71	0	0
XTP	71	0	7
XTP	72	96	1
XTP	72	192	1
XTP	72	288	1
TAP	73	96	2
TAP	73	288	2
TAP	74	96	3
TAP	74	192	3
TAP	74	288	3
TAP	75	96	3
TAP	75	96	4
TAP	75	288	3
TAP	75	288	4
TAP	76	96	5
TAP	76	192	5
TAP	76	288	5
TAP	77	96	6
TAP	77	288	6
TAP	78	96	7
TAP	78	192	7
TAP	78	288	7
BRK	79	96	0
BRK	79	96	7
TAP	80	96	6
TAP	80	192	6
TAP	80	288	6
TAP	81	96	5
TAP	81	288	5
TAP	82	96	4
TAP	82	192	4
TAP	82	288	4
TAP	83	96	3
TAP	83	96	4
TAP	83	288	3
TAP	83	288	4
TAP	84	96	2
XTP	84	192	2
TAP	84	288	2
TAP	85	96	1
TAP	85	192	1
TAP	85	288	1
TAP	86	96	0
TAP	86	192	0
TAP	86	288	0
TAP	87	96	7
TAP	87	192	7
TAP	87	288	7
TAP	88	96	0
TAP	88	192	0
TAP	88	288	0
BRK	89	96	1
BRK	89	96	6

T_REC_TAP	89
T_REC_BRK	6
T_REC_XTP	13
T_REC_HLD	14
T_REC_XHO	2
T_REC_STR	3
T_REC_BST	0
T_REC_XST	0
T_REC_TTP	8
T_REC_THO	0
T_REC_SLD	3
T_REC_ALL	138
T_NUM_TAP	113
T_NUM_BRK	6
T_NUM_HLD	16
T_NUM_SLD	3
T_NUM_ALL	138
T_JUDGE_TAP	119
T_JUDGE_HLD	126
T_JUDGE_SLD	3
T_JUDGE_ALL	248
TTM_EACHPAIRS	22
TTM_SCR_TAP	56500
TTM_SCR_BRK	15600
TTM_SCR_HLD	16000
TTM_SCR_SLD	4500
TTM_SCR_ALL	92600
TTM_SCR_S	89250
TTM_SCR_SS	92000
TTM_RAT_ACV	10065

