VERSION	0.00.00	1.03.00
FES_MODE	0
BPM_DEF	125.000	125.000	125.000	125.000
MET_DEF	4	4
RESOLUTION	384
CLK_DEF	384
COMPATIBLE_CODE	MA2

BPM	0	0	125.000
MET	0	0	4	4

TAP	1	288	1
TAP	1	312	6
TAP	1	336	2
TAP	1	360	5
XTP	2	0	3
XTP	2	0	4
TAP	2	48	5
TAP	2	72	4
TAP	2	96	5
TAP	2	144	3
TAP	2	168	4
TAP	2	216	2
TAP	2	240	3
TAP	2	288	1
TAP	2	288	4
TAP	2	336	3
TAP	2	336	6
TAP	3	0	3
TAP	3	0	4
TAP	3	48	2
TAP	3	72	3
TAP	3	96	2
TAP	3	144	4
TAP	3	168	3
TAP	3	216	5
TAP	3	240	4
TAP	3	288	3
TAP	3	288	6
TAP	3	336	1
TAP	3	336	4
TAP	4	0	0
TAP	4	24	4
TAP	4	48	1
TAP	4	72	4
TAP	4	96	2
TAP	4	120	4
TAP	4	144	3
TAP	4	168	4
TAP	4	192	5
TAP	4	216	4
TAP	4	240	6
TAP	4	264	4
TAP	4	288	7
TAP	4	312	4
TAP	4	336	0
TAP	4	360	4
TAP	5	0	1
HLD	5	24	1	72
TAP	5	72	0
TAP	5	96	0
TAP	5	144	7
STR	5	168	7
SCL	5	168	7	96	72	3
TAP	5	216	3
TAP	5	240	3
TAP	5	288	2
TAP	5	336	1
XTP	6	0	3
XTP	6	0	4
TAP	6	48	2
TAP	6	72	3
TAP	6	96	2
TAP	6	144	4
TAP	6	168	3
TAP	6	216	5
TAP	6	240	4
TAP	6	288	3
TAP	6	288	6
TAP	6	336	1
TAP	6	336	4
TAP	7	0	3
TAP	7	0	4
TAP	7	48	5
TAP	7	72	4
TAP	7	96	5
TAP	7	144	3
TAP	7	168	4
TAP	7	216	2
TAP	7	240	3
TAP	7	288	1
TAP	7	288	4
TAP	7	336	3
TAP	7	336	6
TAP	8	0	7
TAP	8	24	3
TAP	8	48	6
TAP	8	72	3
TAP	8	96	5
TAP	8	120	3
TAP	8	144	4
TAP	8	168	3
TAP	8	192	2
TAP	8	216	3
TAP	8	240	1
TAP	8	264	3
TAP	8	288	0
TAP	8	312	3
TAP	8	336	7
TAP	8	360	3
TAP	9	0	6
HLD	9	24	6	72
TAP	9	72	4
TAP	9	96	4
TAP	9	144	3
TAP	9	168	4
TAP	9	216	3
TAP	9	216	4
TAP	9	240	3
TAP	9	240	4
TAP	9	288	0
TAP	9	288	7
TAP	9	336	1
TAP	9	336	6
HLD	10	0	5	240
TAP	10	48	3
TAP	10	96	4
TAP	10	168	6
TAP	10	240	1
TAP	10	288	2
HLD	10	288	6	48
TAP	10	336	2
HLD	11	0	5	240
TAP	11	48	3
TAP	11	96	4
TAP	11	168	6
TAP	11	240	2
STR	11	288	3
SI_	11	288	3	96	48	0
HLD	11	288	6	48
TAP	11	336	3
XTP	12	0	3
HLD	12	0	5	240
TAP	12	96	1
TAP	12	144	1
TAP	12	240	0
TAP	12	288	1
HLD	12	288	6	48
TAP	12	336	2
STR	13	0	3
SI_	13	0	3	96	48	6
HLD	13	0	5	96
XTP	13	96	3
STR	13	192	4
SI_	13	192	4	96	48	0
STR	13	192	5
SI_	13	192	5	96	48	7
XTP	13	288	4
XTP	13	288	5
HLD	14	0	5	240
TAP	14	48	3
TAP	14	96	4
TAP	14	168	6
TAP	14	240	1
TAP	14	288	2
HLD	14	288	6	48
TAP	14	336	2
HLD	15	0	5	240
TAP	15	48	3
TAP	15	96	4
TAP	15	168	6
TAP	15	240	2
STR	15	288	1
SCL	15	288	1	96	48	6
HLD	15	288	6	48
TAP	15	336	1
XTP	16	0	1
HLD	16	0	5	240
TAP	16	96	4
TAP	16	144	4
TAP	16	240	2
TAP	16	288	1
HLD	16	288	6	48
TAP	17	0	0
HLD	17	0	5	192
TAP	17	48	0
TAP	17	144	6
STR	17	192	6
SI_	17	192	6	96	48	1
HLD	18	0	2	240
TAP	18	48	4
TAP	18	96	3
TAP	18	168	1
TAP	18	240	6
HLD	18	288	1	48
TAP	18	288	5
TAP	18	336	5
HLD	19	0	2	240
TAP	19	48	4
TAP	19	96	3
TAP	19	168	1
TAP	19	240	5
HLD	19	288	1	48
STR	19	288	4
SLL	19	288	4	96	96	7
TAP	19	336	4
HLD	20	0	2	240
XTP	20	0	4
TAP	20	144	6
TAP	20	192	5
TAP	20	240	4
HLD	20	288	1	48
TAP	20	288	3
TAP	20	336	4
HLD	21	0	2	96
STR	21	0	5
SCL	21	0	5	96	48	2
XTP	21	96	5
HLD	21	192	0	96
STR	21	192	5
SCR	21	192	5	96	48	0
XTP	21	288	5
HLD	22	0	2	240
TAP	22	48	4
TAP	22	96	3
TAP	22	168	1
TAP	22	240	6
HLD	22	288	1	48
TAP	22	288	5
TAP	22	336	5
HLD	23	0	2	240
TAP	23	48	4
TAP	23	96	3
TAP	23	168	1
TAP	23	240	5
STR	23	288	2
SXR	23	288	2	96	48	0
STR	23	288	6
SXR	23	288	6	96	48	4
TAP	23	336	2
TAP	23	336	6
XTP	24	0	2
XTP	24	0	6
TAP	24	144	1
STR	24	144	7
SCL	24	144	7	96	48	3
TAP	24	240	1
XTP	24	240	7
STR	24	288	0
SI_	24	288	0	96	48	3
SI_	24	288	0	96	48	5
XTP	25	0	0
TAP	25	96	1
TAP	25	96	6
TAP	25	144	0
TAP	25	168	7
STR	25	192	1
SI_	25	192	1	96	48	5
STR	25	240	5
SI_	25	240	5	96	48	1
TAP	26	0	4
HLD	26	48	4	96
TTP	26	144	5	B	0	M1
TTP	26	192	2	B	0	M1
TAP	26	240	7
TAP	26	288	6
TAP	26	336	5
TAP	27	0	3
HLD	27	48	3	96
TTP	27	144	2	B	0	M1
TTP	27	192	5	B	0	M1
TAP	27	240	0
TAP	27	288	1
TAP	27	336	2
TAP	28	0	4
HLD	28	48	4	96
TTP	28	144	5	B	0	M1
TTP	28	192	2	B	0	M1
STR	28	240	7
SCR	28	240	7	96	144	4
TAP	28	288	6
HLD	28	336	5	336
STR	29	192	0
SI_	29	192	0	96	48	4
TAP	30	0	2
TAP	30	48	2
TAP	30	96	1
TAP	30	96	3
TAP	30	144	4
TAP	30	168	3
TAP	30	216	5
HLD	30	240	4	96
TAP	30	288	7
TAP	30	336	6
TAP	31	0	5
TAP	31	48	5
TAP	31	96	4
TAP	31	96	6
TAP	31	144	3
TAP	31	168	4
TAP	31	216	2
HLD	31	240	3	96
TAP	31	288	0
TAP	31	336	1
STR	32	0	2
SI_	32	0	2	96	48	6
TAP	32	48	2
STR	32	96	0
SI_	32	96	0	96	48	4
TAP	32	144	0
STR	32	192	3
SI_	32	192	3	96	48	7
TAP	32	240	3
TAP	32	288	6
TAP	32	336	5
TAP	33	0	3
TAP	33	0	4
TAP	33	48	2
TAP	33	48	5
STR	33	96	1
SCR	33	96	1	96	96	7
TAP	33	96	6
TAP	33	144	0
TAP	33	144	7
XTP	33	192	1
XTP	33	192	6
BRK	33	288	0
XST	34	0	1
SLR	34	0	1	96	96	7
TAP	34	24	0
TAP	34	48	1
TAP	34	72	0
TAP	34	96	1
TAP	34	144	4
TAP	34	168	4
TAP	34	216	5
TAP	34	240	5
TAP	34	288	0
TAP	34	288	7
TAP	34	336	2
TAP	34	336	4
STR	35	0	6
SLL	35	0	6	96	96	0
TAP	35	24	7
TAP	35	48	6
TAP	35	72	7
TAP	35	96	6
TAP	35	144	3
TAP	35	168	3
TAP	35	216	1
TAP	35	240	1
TAP	35	288	3
TAP	35	288	4
STR	36	0	1
SLR	36	0	1	96	96	7
TAP	36	24	0
TAP	36	48	1
TAP	36	72	0
TAP	36	96	1
TAP	36	144	4
TAP	36	168	4
TAP	36	216	5
TAP	36	240	5
TAP	36	288	6
TAP	36	288	7
TAP	36	336	0
TAP	36	336	1
TTP	37	0	1	E	0	M1
XHO	37	0	5	48
TTP	37	12	0	B	0	M1
TTP	37	24	7	B	0	M1
TTP	37	36	7	E	0	M1
XHO	37	96	1	48
TTP	37	96	5	E	0	M1
TTP	37	108	4	B	0	M1
TTP	37	120	3	B	0	M1
TTP	37	132	3	E	0	M1
TTP	37	192	1	E	0	M1
XHO	37	192	5	48
TTP	37	204	0	B	0	M1
TTP	37	216	7	B	0	M1
TTP	37	228	7	E	0	M1
BRK	37	288	1
TTP	37	288	5	E	0	M1
TTP	37	300	4	B	0	M1
TTP	37	312	3	B	0	M1
TTP	37	324	3	E	0	M1
XST	38	0	6
SLL	38	0	6	96	96	0
TAP	38	24	7
TAP	38	48	6
TAP	38	72	7
TAP	38	96	6
TAP	38	144	3
TAP	38	168	3
TAP	38	216	2
TAP	38	240	2
TAP	38	288	0
TAP	38	288	7
TAP	38	336	3
TAP	38	336	5
STR	39	0	1
SLR	39	0	1	96	96	7
TAP	39	24	0
TAP	39	48	1
TAP	39	72	0
TAP	39	96	1
TAP	39	144	4
TAP	39	168	4
TAP	39	216	6
TAP	39	240	6
TAP	39	288	3
TAP	39	288	4
STR	40	0	6
SLL	40	0	6	96	96	0
TAP	40	24	7
TAP	40	48	6
TAP	40	72	7
TAP	40	96	6
TAP	40	144	3
TAP	40	168	3
TAP	40	216	2
TAP	40	240	2
TAP	40	288	0
TAP	40	288	1
TAP	40	336	6
TAP	40	336	7
XHO	41	0	2	48
TTP	41	0	7	E	0	M1
TTP	41	12	7	B	0	M1
TTP	41	24	0	B	0	M1
TTP	41	36	1	E	0	M1
TTP	41	96	3	E	0	M1
XHO	41	96	6	48
TTP	41	108	3	B	0	M1
TTP	41	120	4	B	0	M1
TTP	41	132	5	E	0	M1
XHO	41	192	2	48
TTP	41	192	7	E	0	M1
TTP	41	204	7	B	0	M1
TTP	41	216	0	B	0	M1
TTP	41	228	1	E	0	M1
TTP	41	288	3	E	0	M1
XTP	41	288	6
TTP	41	300	3	B	0	M1
TTP	41	312	4	B	0	M1
TTP	41	324	5	E	0	M1
TAP	42	0	4
HLD	42	0	5	384
TAP	42	48	6
TAP	42	72	6
STR	42	144	0
SCL	42	144	0	96	96	3
TAP	42	192	0
HLD	43	0	2	384
TAP	43	48	1
TAP	43	72	1
TAP	43	144	0
STR	43	192	7
SI_	43	192	7	96	48	3
XST	43	288	7
SCR	43	288	7	96	96	4
XTP	44	0	7
HLD	44	144	2	48
HLD	44	144	5	48
TAP	44	240	3
TAP	44	240	4
TAP	44	288	2
TAP	44	288	5
TAP	44	336	1
TAP	44	336	6
STR	45	0	0
SI_	45	0	0	96	48	3
STR	45	0	7
SI_	45	0	7	96	48	4
XTP	45	96	0
XTP	45	96	7
THO	45	192	0	192	C	1	M1
BRK	46	0	7
TAP	46	96	6
HLD	46	144	6	144
TAP	46	240	5
STR	46	288	4
SLL	46	288	4	96	96	6
TAP	46	336	3
HLD	47	0	2	144
STR	47	144	7
SCL	47	144	7	96	48	4
TAP	47	240	3
TAP	47	288	3
TAP	47	336	1
TAP	47	360	3
TAP	48	0	2
STR	48	72	2
SXR	48	72	2	96	120	4
TAP	48	72	4
XTP	48	144	2
XHO	48	144	5	144
TAP	48	336	6
TAP	48	360	4
TAP	49	0	5
TAP	49	72	3
STR	49	72	5
SSR	49	72	5	96	120	1
XHO	49	144	2	144
XTP	49	144	5
TAP	50	0	4
TAP	50	0	6
TAP	50	48	2
TAP	50	72	3
TAP	50	96	1
TAP	50	120	1
TAP	50	144	4
TAP	50	168	3
TAP	50	192	6
TAP	50	216	6
TAP	50	264	5
TAP	50	264	7
TAP	50	312	0
TAP	50	336	7
XTP	51	0	0
TAP	51	16	1
TAP	51	32	2
XTP	51	48	7
TAP	51	64	6
TAP	51	80	5
XHO	51	96	3	48
XHO	51	144	4	48
XTP	51	192	1
TAP	51	208	2
TAP	51	224	3
XTP	51	240	6
TAP	51	256	5
TAP	51	272	4
STR	51	288	2
SCR	51	288	2	96	96	0
XTP	52	0	2
HLD	52	0	6	96
TAP	52	144	5
TAP	52	168	4
TAP	52	192	5
TAP	52	240	2
TAP	52	264	3
TAP	52	312	5
TAP	52	336	4
XTP	53	0	3
TAP	53	24	3
TAP	53	48	7
XTP	53	72	2
TAP	53	96	2
TAP	53	120	6
XTP	53	144	1
TAP	53	168	1
TAP	53	192	5
XTP	53	216	0
TAP	53	240	0
TAP	53	264	4
XST	53	288	7
SCR	53	288	7	96	192	4
HLD	54	0	5	1344
TTP	55	0	7	E	0	M1
TTP	55	192	0	C	0	M1
TTP	56	0	3	E	0	M1
TAP	56	144	1
TAP	56	240	2
TAP	56	288	3
TAP	56	336	4
HLD	57	0	6	96
STR	57	192	4
SI_	57	192	4	96	48	0
HLD	58	0	2	192
TAP	58	0	4
TAP	58	48	4
TAP	58	96	4
TAP	58	144	4
TAP	58	192	5
TAP	58	240	5
HLD	58	288	2	48
TAP	58	288	5
TAP	58	336	5
HLD	59	0	2	192
TAP	59	0	6
TAP	59	48	6
TAP	59	96	6
TAP	59	144	6
TAP	59	192	7
TAP	59	240	7
HLD	59	288	2	48
TAP	59	288	7
TAP	59	336	7
STR	60	0	0
SLR	60	0	0	96	96	6
HLD	60	0	2	192
TAP	60	240	7
HLD	60	288	2	48
TAP	60	288	6
TAP	60	336	5
TAP	61	0	3
STR	61	0	4
SI_	61	0	4	96	48	0
TAP	61	48	5
STR	61	96	3
SI_	61	96	3	96	48	7
TAP	61	144	2
STR	61	192	4
SI_	61	192	4	96	48	0
TAP	61	240	5
STR	61	288	3
SCR	61	288	3	96	192	2
BRK	62	0	7
TAP	62	288	2
TAP	62	312	5
TAP	62	336	2
TAP	62	360	5
XTP	63	0	0
TAP	63	24	0
TAP	63	48	6
TAP	63	72	6
STR	63	96	7
SLR	63	96	7	96	72	5
TAP	63	144	4
TAP	63	168	4
TAP	63	216	6
TAP	63	240	6
TAP	63	288	4
TAP	63	288	6
TAP	63	336	2
TAP	63	336	3
TAP	64	0	7
TAP	64	24	7
TAP	64	48	1
TAP	64	72	1
STR	64	96	0
SLL	64	96	0	96	72	2
TAP	64	144	3
TAP	64	168	3
TAP	64	216	1
TAP	64	240	1
TAP	64	288	1
TAP	64	288	3
TAP	64	336	4
TAP	64	336	5
TAP	65	0	0
TAP	65	24	0
TAP	65	48	6
TAP	65	72	6
STR	65	96	7
SLR	65	96	7	96	72	5
TAP	65	144	4
TAP	65	168	4
TAP	65	216	6
TAP	65	240	6
TAP	65	288	7
TAP	65	336	0
TAP	65	336	6
TTP	66	0	1	E	0	M1
XHO	66	0	5	48
TTP	66	12	0	B	0	M1
TTP	66	24	7	B	0	M1
TTP	66	36	7	E	0	M1
XHO	66	96	1	48
TTP	66	96	5	E	0	M1
TTP	66	108	4	B	0	M1
TTP	66	120	3	B	0	M1
TTP	66	132	3	E	0	M1
TTP	66	192	1	E	0	M1
XHO	66	192	5	48
TTP	66	204	0	B	0	M1
TTP	66	216	7	B	0	M1
TTP	66	228	7	E	0	M1
BRK	66	288	1
TTP	66	288	5	E	0	M1
TTP	66	300	4	B	0	M1
TTP	66	312	3	B	0	M1
TTP	66	324	3	E	0	M1
XTP	67	0	7
TAP	67	24	7
TAP	67	48	1
TAP	67	72	1
STR	67	96	0
SLL	67	96	0	96	72	2
TAP	67	144	3
TAP	67	168	3
TAP	67	216	1
TAP	67	240	1
TAP	67	288	1
TAP	67	288	3
TAP	67	336	4
TAP	67	336	5
TAP	68	0	0
TAP	68	24	0
TAP	68	48	6
TAP	68	72	6
STR	68	96	7
SLR	68	96	7	96	72	5
TAP	68	144	4
TAP	68	168	4
TAP	68	216	6
TAP	68	240	6
TAP	68	288	4
TAP	68	288	6
TAP	68	336	2
TAP	68	336	3
STR	69	0	7
SI_	69	0	7	96	48	3
TAP	69	24	0
TAP	69	24	6
TAP	69	72	2
TAP	69	96	2
STR	69	144	0
SI_	69	144	0	96	48	4
TAP	69	168	1
TAP	69	168	7
TAP	69	216	5
TAP	69	240	5
TAP	69	288	7
TAP	69	336	0
TAP	69	336	6
XHO	70	0	2	48
TTP	70	0	7	E	0	M1
TTP	70	12	7	B	0	M1
TTP	70	24	0	B	0	M1
TTP	70	36	1	E	0	M1
TTP	70	96	3	E	0	M1
XHO	70	96	6	48
TTP	70	108	3	B	0	M1
TTP	70	120	4	B	0	M1
TTP	70	132	5	E	0	M1
XHO	70	192	2	48
TTP	70	192	7	E	0	M1
TTP	70	204	7	B	0	M1
TTP	70	216	0	B	0	M1
TTP	70	228	1	E	0	M1
TTP	70	288	3	E	0	M1
XTP	70	288	6
TTP	70	300	3	B	0	M1
TTP	70	312	4	B	0	M1
TTP	70	324	5	E	0	M1
TAP	71	0	1
TAP	71	0	7
STR	71	48	0
SXL	71	48	0	96	144	3
TAP	71	48	6
TAP	71	72	0
TAP	71	72	6
TAP	71	120	5
TAP	71	144	5
TAP	71	192	4
TAP	71	240	5
TAP	71	288	6
TAP	71	336	4
TAP	71	336	7
TAP	72	0	0
TAP	72	0	6
TAP	72	48	1
STR	72	48	7
SXR	72	48	7	96	144	4
TAP	72	72	1
TAP	72	72	7
TAP	72	120	2
TAP	72	144	2
TAP	72	192	3
TAP	72	240	2
TAP	72	288	1
TAP	72	336	0
TAP	72	336	3
TAP	73	0	2
TAP	73	0	4
TAP	73	48	3
TAP	73	48	5
TAP	73	96	1
TAP	73	120	3
HLD	73	144	2	48
TAP	73	192	6
TAP	73	216	4
HLD	73	240	5	48
TAP	73	288	0
TAP	73	312	2
HLD	73	336	1	48
TAP	74	0	7
TAP	74	24	0
TAP	74	48	7
TAP	74	72	0
STR	74	96	1
SI_	74	96	1	96	48	3
STR	74	96	5
SI_	74	96	5	96	48	3
XST	74	192	1
SI_	74	192	1	96	48	7
XST	74	192	5
SI_	74	192	5	96	48	7
XTP	74	288	1
XTP	74	288	5
BST	75	0	2
SLR	75	0	2	96	672	0
BST	75	0	6
SLL	75	0	6	96	672	0

T_REC_TAP	481
T_REC_BRK	5
T_REC_XTP	38
T_REC_HLD	51
T_REC_XHO	16
T_REC_STR	52
T_REC_BST	2
T_REC_XST	6
T_REC_TTP	73
T_REC_THO	1
T_REC_SLD	61
T_REC_ALL	786
T_NUM_TAP	650
T_NUM_BRK	7
T_NUM_HLD	68
T_NUM_SLD	61
T_NUM_ALL	786
T_JUDGE_TAP	657
T_JUDGE_HLD	194
T_JUDGE_SLD	61
T_JUDGE_ALL	912
TTM_EACHPAIRS	105
TTM_SCR_TAP	325000
TTM_SCR_BRK	18200
TTM_SCR_HLD	68000
TTM_SCR_SLD	91500
TTM_SCR_ALL	502700
TTM_SCR_S	486950
TTM_SCR_SS	502000
TTM_RAT_ACV	10013

