VERSION	0.00.00	1.03.00
FES_MODE	0
BPM_DEF	125.000	125.000	125.000	125.000
MET_DEF	4	4
RESOLUTION	384
CLK_DEF	384
COMPATIBLE_CODE	MA2

BPM	0	0	125.000
MET	0	0	4	4

TAP	1	288	3
TAP	1	288	5
TAP	1	336	2
TAP	2	0	2
TAP	2	0	4
TAP	2	48	5
TAP	2	96	6
TAP	2	144	0
TAP	2	144	7
TAP	2	192	0
TAP	2	192	7
TAP	2	240	1
TAP	2	288	2
TAP	2	288	4
TAP	2	336	5
TAP	3	0	3
TAP	3	0	5
TAP	3	48	2
TAP	3	96	1
TAP	3	144	0
TAP	3	144	7
TAP	3	192	0
TAP	3	192	7
TAP	3	240	6
TAP	3	288	3
TAP	3	288	5
TAP	3	336	2
TAP	4	0	2
TAP	4	0	4
TAP	4	48	5
TAP	4	96	5
TAP	4	144	3
TAP	4	144	4
TAP	4	192	2
TAP	4	240	2
TAP	4	288	3
TAP	4	288	4
TAP	4	336	5
STR	5	0	6
SI_	5	0	6	96	48	3
STR	5	96	1
SI_	5	96	1	96	48	4
TAP	5	192	7
TAP	5	240	7
TAP	5	288	0
TAP	5	288	6
TAP	6	0	3
TAP	6	0	5
TAP	6	48	2
TAP	6	96	1
TAP	6	144	0
TAP	6	144	7
TAP	6	192	0
TAP	6	192	7
TAP	6	240	6
TAP	6	288	3
TAP	6	288	5
TAP	6	336	2
TAP	7	0	2
TAP	7	0	4
TAP	7	48	5
TAP	7	96	6
TAP	7	144	0
TAP	7	144	7
TAP	7	192	0
TAP	7	192	7
TAP	7	240	1
TAP	7	288	2
TAP	7	288	4
TAP	7	336	5
TAP	8	0	3
TAP	8	0	5
TAP	8	48	2
TAP	8	96	2
TAP	8	144	3
TAP	8	144	4
TAP	8	192	5
TAP	8	240	5
TAP	8	288	3
TAP	8	288	4
TAP	8	336	2
STR	9	0	1
SI_	9	0	1	96	48	4
STR	9	96	6
SI_	9	96	6	96	48	3
TAP	9	192	0
TAP	9	240	0
TAP	9	288	1
TAP	9	288	7
TAP	10	0	5
TAP	10	48	6
HLD	10	96	6	288
TAP	10	192	4
TAP	10	240	3
TAP	10	288	3
TAP	11	0	2
TAP	11	48	1
HLD	11	96	1	288
TAP	11	192	3
TAP	11	240	4
TAP	11	288	4
HLD	12	0	5	768
TAP	12	96	2
TAP	12	192	3
TAP	12	288	4
TAP	13	0	6
TAP	13	96	7
TAP	13	192	0
TAP	13	288	0
TAP	14	0	2
TAP	14	48	1
HLD	14	96	1	288
TAP	14	192	3
TAP	14	240	4
TAP	14	288	4
TAP	15	0	5
TAP	15	48	6
HLD	15	96	6	288
TAP	15	192	4
TAP	15	240	3
TAP	15	288	3
HLD	16	0	2	768
TAP	16	96	5
TAP	16	192	4
TAP	16	288	3
TAP	17	0	1
TAP	17	96	0
TAP	17	192	7
TAP	17	288	7
TAP	18	0	5
TAP	18	48	6
STR	18	96	6
SI_	18	96	6	96	48	2
STR	18	192	0
SI_	18	192	0	96	48	4
TAP	19	0	5
TAP	19	48	6
TAP	19	96	6
HLD	19	192	0	96
HLD	19	192	7	96
TAP	20	0	1
TAP	20	0	6
TAP	20	96	2
TAP	20	144	3
TAP	20	192	3
TAP	20	288	2
TAP	20	288	4
TAP	21	0	3
TAP	21	0	5
TAP	21	96	3
TAP	21	96	5
TAP	21	192	2
TAP	21	192	4
TAP	21	288	1
TAP	21	288	3
TAP	22	0	2
TAP	22	48	1
STR	22	96	1
SI_	22	96	1	96	48	5
STR	22	192	7
SI_	22	192	7	96	48	3
TAP	23	0	2
TAP	23	48	1
TAP	23	96	1
STR	23	192	0
SI_	23	192	0	96	48	4
STR	23	192	7
SI_	23	192	7	96	48	3
XTP	24	0	2
XTP	24	0	5
TAP	24	96	3
TAP	24	144	4
TAP	24	192	4
TAP	24	288	2
TAP	24	288	5
TAP	25	0	3
TAP	25	96	2
TAP	25	96	4
TAP	25	192	3
TAP	25	192	5
TAP	25	288	3
TAP	25	288	5
TAP	26	0	2
TAP	26	0	6
TAP	26	48	2
HLD	26	48	6	96
TAP	26	144	4
TAP	26	192	4
TAP	26	288	7
TAP	27	0	1
TAP	27	0	5
HLD	27	48	1	96
TAP	27	48	5
TAP	27	144	3
TAP	27	192	3
TAP	27	288	0
TAP	28	0	2
TAP	28	0	6
TAP	28	48	2
HLD	28	48	6	96
TAP	28	144	4
TAP	28	192	4
TAP	28	288	7
TAP	29	0	1
TAP	29	0	5
HLD	29	48	1	96
TAP	29	48	5
TAP	29	144	3
TAP	29	192	3
TAP	29	288	2
TAP	29	288	4
STR	30	0	5
SCL	30	0	5	96	96	2
STR	30	192	1
SCL	30	192	1	96	96	6
STR	31	0	5
SCL	31	0	5	96	96	2
STR	31	192	1
SI_	31	192	1	96	96	6
STR	32	0	4
SI_	32	0	4	96	96	7
HLD	32	192	0	96
TAP	32	288	7
TAP	32	336	7
TAP	33	0	1
TAP	33	48	1
TAP	33	96	6
TAP	33	144	6
BST	33	192	0
SI_	33	192	0	96	48	4
TAP	34	0	3
TAP	34	0	5
TAP	34	48	6
TAP	34	96	0
TAP	34	96	7
TAP	34	144	0
TAP	34	144	7
TAP	34	192	1
TAP	34	240	2
TAP	34	240	4
TAP	34	288	3
TAP	34	288	5
TAP	34	336	3
TAP	34	336	5
TAP	35	0	2
TAP	35	0	4
TAP	35	48	1
TAP	35	96	0
TAP	35	96	7
TAP	35	144	6
STR	35	192	4
SI_	35	192	4	96	48	1
STR	35	192	5
SI_	35	192	5	96	48	0
XTP	36	0	0
XTP	36	0	1
TAP	36	48	2
TAP	36	96	3
TAP	36	96	4
TAP	36	144	3
TAP	36	144	4
TAP	36	192	5
TAP	36	240	6
TAP	36	288	3
TAP	36	336	2
STR	37	0	2
SCR	37	0	2	96	48	5
TTP	37	192	1	E	0	M1
TTP	37	192	7	E	0	M1
XTP	37	288	0
XTP	37	288	7
TAP	38	0	2
TAP	38	0	4
TAP	38	48	1
TAP	38	96	0
TAP	38	96	7
TAP	38	144	0
TAP	38	144	7
TAP	38	192	6
TAP	38	240	3
TAP	38	240	5
TAP	38	288	2
TAP	38	288	4
TAP	38	336	2
TAP	38	336	4
TAP	39	0	3
TAP	39	0	5
TAP	39	48	6
TAP	39	96	0
TAP	39	96	7
TAP	39	144	1
STR	39	192	2
SI_	39	192	2	96	48	5
STR	39	192	6
SI_	39	192	6	96	48	1
XTP	40	0	3
XTP	40	0	7
TAP	40	48	6
TAP	40	96	2
TAP	40	96	5
TAP	40	144	3
TAP	40	144	4
TAP	40	192	2
TAP	40	240	1
TAP	40	288	5
TAP	40	336	6
STR	41	0	6
SI_	41	0	6	96	48	3
STR	41	96	1
SI_	41	96	1	96	48	4
STR	41	192	7
SI_	41	192	7	96	48	3
XTP	41	288	0
XTP	42	0	1
XTP	42	0	3
TAP	42	48	4
STR	42	96	3
SI_	42	96	3	96	48	0
TAP	42	96	5
TAP	42	192	4
TAP	42	288	5
TAP	43	0	4
TAP	43	0	6
TAP	43	48	3
TAP	43	96	2
STR	43	96	4
SI_	43	96	4	96	48	7
TAP	43	192	3
TAP	43	288	2
BRK	44	0	0
BRK	44	0	7
XHO	44	144	6	96
TAP	44	240	4
TAP	44	288	4
HLD	45	0	2	96
HLD	45	96	0	96
HLD	45	192	7	96
STR	45	288	5
SCR	45	288	5	96	192	2
TTP	46	0	0	C	1	M1
HLD	47	0	1	96
TAP	47	96	3
TAP	47	144	4
TAP	47	192	4
TAP	47	288	3
TAP	47	288	5
TAP	48	0	2
STR	48	0	6
SXL	48	0	6	96	288	3
XTP	48	336	2
XST	49	0	2
SXL	49	0	2	96	288	7
TAP	50	0	6
TAP	50	48	6
TAP	50	96	4
TAP	50	144	4
TAP	50	192	5
TAP	50	240	5
TAP	50	288	1
TAP	50	336	1
TAP	51	0	3
TAP	51	48	3
TAP	51	96	0
TAP	51	144	0
TAP	51	192	5
TAP	51	240	5
STR	51	288	1
SCR	51	288	1	96	144	5
BRK	52	0	6
XTP	52	144	7
XHO	52	192	7	96
STR	52	288	0
SI_	52	288	0	96	48	2
STR	53	0	6
SI_	53	0	6	96	48	4
STR	53	96	7
SI_	53	96	7	96	48	3
XTP	53	288	2
XST	53	288	4
SUL	53	288	4	96	384	3
TTP	54	0	0	C	1	M1
HLD	56	0	2	384
TAP	56	288	4
HLD	57	0	5	192
TAP	57	192	3
TAP	57	288	3
TAP	57	288	5
TAP	58	0	4
HLD	58	0	6	192
TAP	58	96	4
TAP	58	144	3
TAP	58	192	3
TAP	58	288	2
TAP	58	288	5
HLD	59	0	1	192
TAP	59	0	3
TAP	59	96	3
TAP	59	144	4
TAP	59	192	4
TAP	59	288	2
TAP	59	288	5
TAP	60	0	1
TAP	60	0	6
HLD	60	144	5	96
TAP	60	240	7
TAP	60	288	0
STR	60	336	0
SI_	60	336	0	96	48	3
STR	61	48	4
SI_	61	48	4	96	48	7
STR	61	144	3
SCL	61	144	3	96	240	4
TTP	61	240	0	C	1	M1
XTP	62	288	0
XTP	62	288	7
TAP	63	0	2
TAP	63	0	6
TAP	63	48	7
TAP	63	96	0
TAP	63	144	1
TAP	63	192	2
TAP	63	192	4
TAP	63	240	5
TAP	63	288	3
TAP	63	288	6
TAP	63	336	2
TAP	64	0	1
TAP	64	0	5
TAP	64	48	0
TAP	64	96	7
TAP	64	144	6
STR	64	192	4
SI_	64	192	4	96	48	1
STR	64	192	5
SI_	64	192	5	96	48	0
XTP	65	0	0
XTP	65	0	1
XTP	65	48	0
XTP	65	48	1
XTP	65	96	2
XTP	65	96	7
XTP	65	144	2
XTP	65	144	7
XTP	65	192	3
XTP	65	192	6
XTP	65	240	3
XTP	65	240	6
XTP	65	288	4
XST	65	288	5
SI_	65	288	5	96	48	0
STR	66	0	1
SI_	66	0	1	96	48	4
STR	66	96	5
SI_	66	96	5	96	48	0
STR	66	192	1
SI_	66	192	1	96	48	4
XTP	66	288	7
TAP	67	0	1
TAP	67	0	5
TAP	67	48	0
TAP	67	96	7
TAP	67	144	6
TAP	67	192	3
TAP	67	192	5
TAP	67	240	2
TAP	67	288	1
TAP	67	288	4
TAP	67	336	5
TAP	68	0	2
TAP	68	0	6
TAP	68	48	7
TAP	68	96	0
TAP	68	144	1
TAP	68	192	2
TAP	68	192	4
TAP	68	240	5
TAP	68	288	3
TAP	68	288	6
TAP	69	0	0
TAP	69	48	1
TAP	69	96	2
TAP	69	96	4
TAP	69	144	5
TAP	69	192	6
TAP	69	240	7
STR	69	288	7
SI_	69	288	7	96	48	4
STR	70	0	0
SI_	70	0	0	96	48	3
STR	70	96	6
SI_	70	96	6	96	48	4
STR	70	192	1
SI_	70	192	1	96	48	3
BRK	70	288	7
TAP	71	0	4
TAP	71	0	6
TAP	71	48	7
STR	71	96	7
SCL	71	96	7	96	96	4
STR	71	192	2
SI_	71	192	2	96	48	0
TAP	72	0	1
TAP	72	0	3
TAP	72	48	0
STR	72	96	0
SI_	72	96	0	96	48	4
STR	72	192	5
SI_	72	192	5	96	48	7
STR	72	288	3
SCL	72	288	3	96	96	0
TTP	73	0	0	C	1	M1
XHO	73	144	7	96
TAP	73	240	0
TAP	73	288	0
TAP	73	288	7
TAP	74	0	1
HLD	74	0	6	96
HLD	74	96	4	96
HLD	74	192	3	96
STR	74	288	1
SCR	74	288	1	96	768	0
TTP	75	0	0	C	1	M1

T_REC_TAP	347
T_REC_BRK	4
T_REC_XTP	30
T_REC_HLD	25
T_REC_XHO	3
T_REC_STR	49
T_REC_BST	1
T_REC_XST	3
T_REC_TTP	7
T_REC_THO	0
T_REC_SLD	53
T_REC_ALL	522
T_NUM_TAP	436
T_NUM_BRK	5
T_NUM_HLD	28
T_NUM_SLD	53
T_NUM_ALL	522
T_JUDGE_TAP	441
T_JUDGE_HLD	112
T_JUDGE_SLD	53
T_JUDGE_ALL	606
TTM_EACHPAIRS	110
TTM_SCR_TAP	218000
TTM_SCR_BRK	13000
TTM_SCR_HLD	28000
TTM_SCR_SLD	79500
TTM_SCR_ALL	338500
TTM_SCR_S	327900
TTM_SCR_SS	338000
TTM_RAT_ACV	10014

