VERSION	0.00.00	1.03.00
FES_MODE	0
BPM_DEF	125.000	125.000	125.000	125.000
MET_DEF	4	4
RESOLUTION	384
CLK_DEF	384
COMPATIBLE_CODE	MA2

BPM	0	0	125.000
MET	0	0	4	4

TAP	2	0	6
TAP	2	96	6
TAP	2	192	6
TAP	2	192	7
TAP	3	0	1
TAP	3	96	1
TAP	3	192	0
TAP	3	192	1
TAP	4	0	6
TAP	4	96	6
TAP	4	192	7
TAP	4	288	7
TAP	5	0	0
TAP	5	96	0
TAP	5	192	1
TAP	5	192	7
TAP	6	0	2
TAP	6	96	2
TAP	6	192	2
TAP	6	192	3
TAP	7	0	5
TAP	7	96	5
TAP	7	192	4
TAP	7	192	5
TAP	8	0	2
TAP	8	96	2
TAP	8	192	3
TAP	8	288	3
TAP	9	0	4
TAP	9	96	3
TAP	9	96	4
TAP	9	192	3
TAP	9	192	4
HLD	10	0	5	192
TAP	10	192	4
TAP	10	288	3
HLD	11	0	2	192
TAP	11	192	3
TAP	11	288	4
HLD	12	0	5	192
HLD	12	192	4	192
HLD	13	0	3	192
TAP	13	192	2
HLD	14	0	1	192
TAP	14	192	0
TAP	14	288	7
HLD	15	0	6	192
TAP	15	192	7
TAP	15	288	0
HLD	16	0	1	192
HLD	16	192	0	192
HLD	17	0	7	192
TAP	17	192	6
HLD	18	0	5	96
TAP	18	96	4
TAP	18	192	4
HLD	19	0	2	96
TAP	19	96	3
TAP	19	192	3
HLD	20	0	5	96
TAP	20	96	4
TAP	20	192	4
TAP	21	0	3
TAP	21	96	3
TAP	21	192	2
TAP	21	192	4
HLD	22	0	1	96
TAP	22	96	0
TAP	22	192	0
HLD	23	0	6	96
TAP	23	96	7
TAP	23	192	7
HLD	24	0	1	96
TAP	24	96	0
TAP	24	192	0
TAP	25	0	7
TAP	25	96	7
TAP	25	192	0
TAP	25	288	0
BST	26	0	1
SI_	26	0	1	96	144	4
STR	27	0	5
SI_	27	0	5	96	144	0
STR	28	0	1
SI_	28	0	1	96	144	5
STR	29	0	6
SI_	29	0	6	96	144	2
TAP	30	0	1
TAP	30	96	1
TAP	30	192	0
TAP	30	192	1
TAP	31	0	6
TAP	31	96	6
TAP	31	192	6
TAP	31	192	7
TAP	32	0	1
TAP	32	96	1
TAP	32	192	0
TAP	32	288	0
TAP	33	0	0
TAP	33	0	7
TAP	33	96	1
TAP	33	96	6
TAP	33	192	2
TAP	33	192	5
BRK	34	0	6
TAP	34	96	6
TAP	34	192	6
TAP	34	192	7
TAP	34	288	6
TAP	34	288	7
TAP	35	0	1
TAP	35	96	1
TAP	35	192	0
TAP	35	192	1
TAP	35	288	0
TAP	35	288	1
TAP	36	0	2
TAP	36	96	2
TAP	36	192	3
TAP	36	288	3
XTP	37	0	4
XTP	37	96	4
XTP	37	192	3
XTP	37	192	5
TAP	38	0	2
TAP	38	96	2
TAP	38	192	2
TAP	38	192	3
TAP	38	288	2
TAP	38	288	3
TAP	39	0	5
TAP	39	96	5
TAP	39	192	4
TAP	39	192	5
TAP	39	288	4
TAP	39	288	5
TAP	40	0	6
TAP	40	96	6
TAP	40	192	6
TAP	40	192	7
TAP	40	288	6
TAP	40	288	7
XTP	41	0	0
XTP	41	96	0
XTP	41	192	1
XTP	41	288	2
STR	42	0	3
SI_	42	0	3	96	144	0
STR	42	0	4
SI_	42	0	4	96	144	7
STR	43	0	0
SI_	43	0	0	96	144	3
STR	43	0	7
SI_	43	0	7	96	144	4
HLD	44	0	2	96
HLD	44	0	5	96
HLD	44	192	1	96
HLD	44	192	6	96
TAP	45	0	0
TAP	45	0	7
TAP	45	96	0
TAP	45	96	7
TAP	45	192	1
TAP	45	192	6
TAP	45	288	2
TAP	45	288	5
BST	46	0	3
SCL	46	0	3	96	144	0
BST	46	0	4
SCR	46	0	4	96	144	7
TTP	47	0	6	E	0	L1
TTP	47	96	5	B	0	L1
TTP	47	192	4	B	0	L1
TTP	48	0	2	E	0	L1
TTP	48	96	2	B	0	L1
TTP	48	192	3	B	0	L1
TTP	49	0	6	E	0	L1
TTP	49	96	5	B	0	L1
TTP	49	192	4	B	0	L1
TTP	50	0	2	B	0	L1
TTP	50	96	1	B	0	L1
TTP	50	192	1	E	0	L1
TTP	51	0	5	B	0	L1
TTP	51	96	6	B	0	L1
TTP	51	192	7	E	0	L1
TTP	52	0	3	B	0	L1
TTP	52	96	2	B	0	L1
TTP	52	192	1	B	0	L1
TTP	52	288	0	B	0	L1
TTP	53	0	7	B	0	L1
TTP	53	96	6	B	0	L1
TTP	53	192	2	B	0	L1
TTP	53	192	5	B	0	L1
XST	54	0	1
SUR	54	0	1	96	144	5
STR	55	0	6
SUL	55	0	6	96	144	2
STR	56	0	1
SCR	56	0	1	96	144	4
STR	57	0	5
SCR	57	0	5	96	144	0
HLD	58	0	1	192
HLD	58	192	0	192
HLD	59	0	7	192
TAP	59	192	6
HLD	60	0	5	192
HLD	60	192	4	192
HLD	61	0	3	192
TAP	61	192	2
STR	62	0	3
SI_	62	0	3	96	144	0
STR	62	0	4
SI_	62	0	4	96	144	7
BRK	63	0	1
TAP	63	96	0
TAP	63	96	1
TAP	63	192	1
TAP	63	288	0
TAP	63	288	1
TAP	64	0	6
TAP	64	96	6
TAP	64	96	7
TAP	64	192	6
TAP	64	288	6
TAP	64	288	7
TAP	65	0	5
TAP	65	96	5
TAP	65	192	4
TAP	65	288	4
XTP	66	0	3
XTP	66	96	2
XTP	66	192	1
XTP	66	192	4
TAP	67	0	5
TAP	67	96	4
TAP	67	96	5
TAP	67	192	5
TAP	67	288	4
TAP	67	288	5
TAP	68	0	2
TAP	68	96	2
TAP	68	96	3
TAP	68	192	2
TAP	68	288	2
TAP	68	288	3
TAP	69	0	1
TAP	69	96	1
TAP	69	192	0
TAP	69	192	1
TAP	69	288	0
TAP	69	288	1
XTP	70	0	7
XTP	70	96	7
XTP	70	192	6
XTP	70	288	5
STR	71	0	3
SI_	71	0	3	96	144	0
STR	71	0	4
SI_	71	0	4	96	144	7
STR	72	0	0
SI_	72	0	0	96	144	3
STR	72	0	7
SI_	72	0	7	96	144	4
HLD	73	0	2	96
HLD	73	0	5	96
HLD	73	192	1	96
HLD	73	192	6	96
TAP	74	0	0
TAP	74	0	7
TAP	74	96	0
TAP	74	96	7
TAP	74	192	1
TAP	74	192	6
TAP	74	288	2
TAP	74	288	5
BST	75	0	3
SXR	75	0	3	96	480	0
BST	75	0	4
SXL	75	0	4	96	480	7

T_REC_TAP	165
T_REC_BRK	2
T_REC_XTP	16
T_REC_HLD	30
T_REC_XHO	0
T_REC_STR	16
T_REC_BST	5
T_REC_XST	1
T_REC_TTP	23
T_REC_THO	0
T_REC_SLD	22
T_REC_ALL	280
T_NUM_TAP	221
T_NUM_BRK	7
T_NUM_HLD	30
T_NUM_SLD	22
T_NUM_ALL	280
T_JUDGE_TAP	228
T_JUDGE_HLD	92
T_JUDGE_SLD	22
T_JUDGE_ALL	342
TTM_EACHPAIRS	54
TTM_SCR_TAP	110500
TTM_SCR_BRK	18200
TTM_SCR_HLD	30000
TTM_SCR_SLD	33000
TTM_SCR_ALL	191700
TTM_SCR_S	185300
TTM_SCR_SS	191000
TTM_RAT_ACV	10036

