VERSION	0.00.00	1.03.00
FES_MODE	0
BPM_DEF	128.000	128.000	128.000	128.000
MET_DEF	4	4
RESOLUTION	384
CLK_DEF	384
COMPATIBLE_CODE	MA2

BPM	0	0	128.000
MET	0	0	4	4

TAP	1	0	1
TAP	1	48	1
TAP	1	96	1
XTP	1	192	2
TAP	1	200	3
TAP	1	208	4
TAP	2	0	6
TAP	2	48	6
TAP	2	96	6
XTP	2	192	5
TAP	2	200	4
TAP	2	208	3
TAP	3	0	1
TAP	3	48	1
TAP	3	96	1
XTP	3	192	2
TAP	3	200	3
TAP	3	208	4
TAP	4	0	6
TAP	4	48	6
TAP	4	96	6
XTP	4	192	5
TAP	4	200	4
TAP	4	208	3
TAP	4	288	0
TAP	5	0	1
TAP	5	48	1
TAP	5	96	2
TAP	5	144	2
XTP	5	192	3
TAP	5	200	4
TAP	5	208	5
TAP	5	288	3
TAP	5	288	5
TAP	6	0	6
TAP	6	48	6
TAP	6	96	5
TAP	6	144	5
XTP	6	192	4
TAP	6	200	3
TAP	6	208	2
TAP	6	288	2
TAP	6	288	4
TAP	7	0	1
TAP	7	48	1
TAP	7	96	2
TAP	7	144	2
XTP	7	192	3
TAP	7	200	4
TAP	7	208	5
TAP	7	288	3
TAP	7	288	5
TAP	8	0	6
TAP	8	48	6
TAP	8	96	5
TAP	8	144	5
TAP	8	192	3
TAP	8	224	4
TAP	8	256	3
TAP	8	288	1
TAP	8	288	6
TAP	9	0	4
TAP	9	0	5
TAP	9	48	3
TAP	9	96	4
TAP	9	96	5
TAP	9	144	6
TAP	9	192	2
TAP	9	192	3
TAP	9	240	4
TAP	9	288	2
TAP	9	288	3
TAP	9	336	1
TAP	10	0	3
HLD	10	0	4	96
TAP	10	48	2
HLD	10	96	3	96
TAP	10	144	1
HLD	10	192	2	96
TAP	10	240	0
TAP	10	288	0
TAP	11	0	2
TAP	11	0	4
TAP	11	48	2
TAP	11	48	4
HLD	11	96	1	96
HLD	11	96	5	192
TTP	11	200	1	E	0	M1
TTP	11	208	0	B	0	M1
TTP	11	216	7	B	0	M1
TTP	11	224	7	E	0	M1
TTP	11	296	5	E	0	M1
TTP	11	304	4	B	0	M1
TTP	11	312	3	B	0	M1
TTP	11	320	3	E	0	M1
XTP	12	0	0
TAP	12	48	1
XTP	12	96	7
TAP	12	144	6
HLD	12	192	3	96
HLD	12	192	4	96
TTP	12	296	3	E	0	M1
TTP	12	296	5	E	0	M1
TTP	12	304	2	B	0	M1
TTP	12	304	5	B	0	M1
TTP	12	312	1	B	0	M1
TTP	12	312	6	B	0	M1
TTP	12	320	1	E	0	M1
TTP	12	320	7	E	0	M1
HLD	13	0	3	96
TAP	13	48	4
HLD	13	96	4	96
TAP	13	144	5
HLD	13	192	5	96
TAP	13	240	6
HLD	13	288	6	96
HLD	14	0	3	96
TAP	14	48	2
HLD	14	96	2	96
TAP	14	144	1
HLD	14	192	1	96
TAP	14	240	0
TTP	14	288	0	C	0	M1
HLD	15	0	2	96
TAP	15	48	4
HLD	15	96	3	96
TAP	15	144	5
HLD	15	192	4	96
TAP	15	240	6
HLD	15	288	7	288
TAP	15	336	3
TAP	16	0	5
TAP	16	48	0
TAP	16	96	5
TAP	16	144	0
TAP	16	192	5
TAP	16	240	3
TAP	16	240	4
TAP	16	288	1
TAP	16	288	6
HLD	17	0	0	240
TAP	17	0	6
TAP	17	48	6
TAP	17	96	5
TAP	17	144	5
TAP	17	192	4
TAP	17	240	4
TAP	17	288	3
TTP	17	288	7	E	0	M1
TAP	17	336	3
TAP	18	0	2
HLD	18	0	4	240
TAP	18	48	2
TAP	18	96	1
TAP	18	144	1
TAP	18	192	0
TAP	18	240	0
TTP	18	288	3	E	0	M1
TAP	18	288	7
TAP	18	336	7
HLD	19	0	1	240
TAP	19	0	4
TAP	19	48	4
TAP	19	96	5
TAP	19	144	5
TAP	19	192	6
TAP	19	240	6
TTP	19	288	3	E	0	M1
TAP	19	288	7
TAP	19	336	7
TAP	20	0	4
TAP	20	0	6
TAP	20	48	0
TAP	20	96	1
TAP	20	96	3
TAP	20	144	7
TAP	20	192	2
TAP	20	192	5
TAP	20	240	3
TAP	20	240	4
TAP	20	288	1
TAP	20	288	6
TAP	21	0	3
TAP	21	48	3
TAP	21	80	4
TAP	21	96	3
TAP	21	144	3
TAP	21	144	4
TAP	21	192	5
TAP	21	240	5
TAP	21	272	4
TAP	21	288	5
TAP	21	336	4
TAP	21	336	5
TAP	22	0	1
TAP	22	48	1
TAP	22	80	4
TAP	22	96	1
TAP	22	144	1
TAP	22	144	4
TAP	22	192	7
TAP	22	240	7
TAP	22	272	4
TAP	22	288	7
TAP	22	336	4
TAP	22	336	7
TAP	23	0	2
TAP	23	32	4
TAP	23	48	1
TAP	23	80	4
TAP	23	96	0
TAP	23	128	4
TAP	23	144	7
TAP	23	176	4
TAP	23	192	0
TAP	23	224	4
TAP	23	240	1
TAP	23	272	4
XTP	23	288	2
XTP	23	300	1
XTP	23	312	0
XTP	23	324	7
XTP	23	336	6
XTP	23	348	5
XTP	23	360	4
XTP	23	372	3
TTP	24	0	0	C	0	M1
XTP	24	0	2
TAP	24	192	2
TAP	24	192	5
TAP	24	240	3
TAP	24	240	4
STR	24	288	1
SLL	24	288	1	96	96	5
TAP	24	288	6
STR	25	0	5
SLR	25	0	5	96	96	1
STR	25	96	1
SLL	25	96	1	96	96	5
STR	25	192	5
SLR	25	192	5	96	96	1
STR	25	288	1
SLL	25	288	1	96	96	5
STR	26	0	5
SLR	26	0	5	96	96	1
STR	26	96	1
SUR	26	96	1	96	96	1
TTP	26	192	0	C	0	M1
STR	26	288	5
SLR	26	288	5	96	96	1
STR	27	0	1
SLL	27	0	1	96	96	5
STR	27	96	5
SLR	27	96	5	96	96	1
STR	27	192	1
SLL	27	192	1	96	96	5
STR	27	288	5
SLR	27	288	5	96	96	1
STR	28	0	1
SLL	28	0	1	96	96	5
STR	28	96	5
SUL	28	96	5	96	96	4
TTP	28	192	0	C	0	M1
TAP	28	288	1
TAP	29	0	0
STR	29	0	7
SLL	29	0	7	96	96	3
STR	29	96	3
SLR	29	96	3	96	96	7
STR	29	192	7
SLR	29	192	7	96	96	3
STR	29	288	3
SLL	29	288	3	96	96	7
STR	30	0	7
SLL	30	0	7	96	96	3
STR	30	96	3
SCL	30	96	3	96	96	5
TTP	30	192	0	C	0	M1
TAP	30	288	1
STR	31	0	0
SLR	31	0	0	96	96	4
TAP	31	0	7
STR	31	96	4
SLL	31	96	4	96	96	0
STR	31	192	0
SLL	31	192	0	96	96	4
STR	31	288	4
SLR	31	288	4	96	96	0
STR	32	0	0
SLR	32	0	0	96	96	4
STR	32	96	4
SCR	32	96	4	96	96	2
TTP	32	192	0	C	0	M1
TAP	32	288	6
TAP	33	0	2
HLD	33	0	7	144
TAP	33	48	2
TAP	33	96	3
TAP	33	144	3
TAP	33	192	4
TTP	33	192	7	B	0	M1
TTP	33	192	7	E	0	M1
TAP	33	240	4
TTP	33	288	0	B	0	M1
TTP	33	288	1	E	0	M1
TAP	33	288	5
TAP	33	336	5
HLD	34	0	3	144
TAP	34	0	6
TAP	34	48	6
TAP	34	96	7
TAP	34	144	7
TAP	34	192	0
TTP	34	192	3	B	0	M1
TTP	34	192	3	E	0	M1
TAP	34	240	0
TAP	34	288	1
TTP	34	288	4	B	0	M1
TTP	34	288	5	E	0	M1
TAP	34	336	1
TAP	35	0	2
HLD	35	0	4	144
TAP	35	48	2
TAP	35	96	3
TAP	35	144	3
TAP	35	192	4
TTP	35	192	7	B	0	M1
TTP	35	192	7	E	0	M1
TAP	35	240	4
TTP	35	288	0	B	0	M1
TTP	35	288	1	E	0	M1
TAP	35	288	5
TAP	35	336	5
TAP	36	0	2
TAP	36	0	3
TAP	36	48	0
TAP	36	96	4
TAP	36	96	5
TAP	36	144	7
TAP	36	192	2
TAP	36	192	5
TAP	36	240	3
TAP	36	240	4
TAP	36	288	1
TAP	36	288	6
TAP	37	0	3
TAP	37	24	5
TAP	37	48	3
TAP	37	72	5
TAP	37	96	3
TAP	37	120	5
TAP	37	144	3
TAP	37	168	5
TAP	37	192	2
TAP	37	216	5
TAP	37	240	1
TAP	37	264	5
TAP	37	288	0
TAP	37	312	5
TAP	37	336	7
TAP	37	360	5
TAP	38	0	4
TAP	38	24	5
TAP	38	48	4
TAP	38	72	5
TAP	38	96	4
TAP	38	120	5
TAP	38	144	4
TAP	38	168	5
TAP	38	192	3
TAP	38	216	5
TAP	38	240	2
TAP	38	264	5
TAP	38	288	1
TAP	38	312	5
TAP	38	336	0
TAP	38	360	5
TAP	39	0	4
TAP	39	24	4
TAP	39	48	5
TAP	39	72	5
TAP	39	96	2
TAP	39	120	2
TAP	39	144	5
TAP	39	168	5
TAP	39	192	1
TAP	39	216	1
TAP	39	240	5
TAP	39	264	5
XTP	39	288	1
TAP	39	300	2
TAP	39	312	3
TAP	39	324	4
XTP	39	336	7
TAP	39	348	6
TAP	39	360	5
TAP	39	372	4
BRK	40	0	0
HLD	40	192	0	48
HLD	40	192	7	48
TAP	40	288	2
STR	40	288	5
SLR	40	288	5	96	96	1
STR	41	0	1
SLL	41	0	1	96	96	5
STR	41	96	5
SLL	41	96	5	96	96	1
STR	41	192	1
SLR	41	192	1	96	96	5
STR	41	288	5
SLR	41	288	5	96	96	1
STR	42	0	1
SLL	42	0	1	96	96	5
STR	42	96	5
SUR	42	96	5	96	96	3
TTP	42	192	0	C	0	M1
XST	42	288	0
SLR	42	288	0	96	96	4
STR	43	0	4
SLL	43	0	4	96	96	0
STR	43	96	0
SLL	43	96	0	96	96	4
STR	43	192	4
SLR	43	192	4	96	96	0
STR	43	288	0
SLR	43	288	0	96	96	4
STR	44	0	4
SLL	44	0	4	96	96	0
STR	44	96	0
SUR	44	96	0	96	96	6
TTP	44	192	0	C	0	M1
XTP	44	288	7
STR	45	0	2
SLR	45	0	2	96	96	6
TAP	45	0	5
STR	45	96	6
SLL	45	96	6	96	96	2
STR	45	192	2
SLL	45	192	2	96	96	5
STR	45	288	5
SLL	45	288	5	96	96	1
STR	46	0	1
SLR	46	0	1	96	96	5
STR	46	96	5
SUL	46	96	5	96	96	3
TTP	46	192	0	C	0	M1
XTP	46	288	7
TAP	47	0	0
STR	47	0	5
SLL	47	0	5	96	96	1
STR	47	96	1
SLR	47	96	1	96	96	5
STR	47	192	5
SLR	47	192	5	96	96	2
STR	47	288	2
SLR	47	288	2	96	96	6
TAP	48	0	6
TAP	48	96	2
TAP	48	144	2
TAP	48	192	1
TAP	48	192	4
TAP	48	240	1
TAP	48	240	4
XTP	48	288	0
XST	48	288	7
SCL	48	288	7	96	96	2
STR	49	0	2
SLL	49	0	2	96	96	6
STR	49	96	6
SLR	49	96	6	96	96	2
STR	49	192	2
SCR	49	192	2	96	96	0
STR	49	288	0
SLL	49	288	0	96	96	4
STR	50	0	4
SLR	50	0	4	96	96	0
STR	50	96	0
SUR	50	96	0	96	96	1
TTP	50	192	0	C	0	M1
XST	50	288	0
SCR	50	288	0	96	96	5
STR	51	0	5
SLR	51	0	5	96	96	1
STR	51	96	1
SLL	51	96	1	96	96	5
STR	51	192	5
SCL	51	192	5	96	96	7
STR	51	288	7
SLR	51	288	7	96	96	3
STR	52	0	3
SLL	52	0	3	96	96	7
STR	52	96	7
SUL	52	96	7	96	96	5
TTP	52	192	0	C	0	M1
XST	52	288	0
SCL	52	288	0	96	96	3
STR	53	0	3
SLL	53	0	3	96	96	7
STR	53	96	7
SLR	53	96	7	96	96	3
STR	53	192	3
SXR	53	192	3	96	96	4
STR	53	288	4
SLR	53	288	4	96	96	0
STR	54	0	0
SLL	54	0	0	96	96	4
STR	54	96	4
SUL	54	96	4	96	96	2
TTP	54	192	0	C	0	M1
XST	54	288	7
SCR	54	288	7	96	96	4
STR	55	0	4
SLR	55	0	4	96	96	0
STR	55	96	0
SLL	55	96	0	96	96	4
STR	55	192	4
SXL	55	192	4	96	96	3
STR	55	288	3
SLL	55	288	3	96	96	7
STR	56	0	7
SLR	56	0	7	96	96	3
STR	56	96	3
SCR	56	96	3	96	96	3
TTP	56	192	0	C	0	M1
XTP	56	288	7
TAP	57	0	2
HLD	57	0	5	96
TAP	57	48	7
HLD	57	96	3	96
TAP	57	144	2
HLD	57	192	4	192
TAP	57	240	7
TTP	57	288	4	B	0	M1
TTP	57	288	4	E	0	M1
TTP	57	288	5	E	0	M1
TAP	57	336	7
HLD	58	0	2	96
TAP	58	48	0
HLD	58	96	4	96
TAP	58	144	5
HLD	58	192	3	192
TAP	58	240	0
TTP	58	288	3	B	0	M1
TTP	58	288	3	E	0	M1
TTP	58	288	4	E	0	M1
TAP	58	336	0
HLD	59	0	5	96
TAP	59	48	4
HLD	59	96	1	96
TAP	59	144	2
HLD	59	192	4	144
TAP	59	240	6
TTP	59	288	4	B	0	M1
TTP	59	288	4	E	0	M1
TTP	59	288	5	E	0	M1
TAP	59	336	6
TAP	60	0	1
TAP	60	0	3
TAP	60	48	0
TAP	60	96	4
TAP	60	96	6
TAP	60	144	7
TAP	60	192	2
TAP	60	192	5
TAP	60	240	3
TAP	60	240	4
TAP	60	288	1
TAP	60	288	6
HLD	61	0	7	96
TTP	61	48	7	B	0	M1
HLD	61	96	3	96
TTP	61	144	3	B	0	M1
HLD	61	192	5	96
TTP	61	240	5	B	0	M1
HLD	61	288	1	96
TTP	61	336	1	E	0	M1
TTP	61	336	2	E	0	M1
HLD	62	0	3	96
TTP	62	48	3	B	0	M1
HLD	62	96	0	96
TTP	62	144	0	B	0	M1
HLD	62	192	5	96
TTP	62	240	5	B	0	M1
HLD	62	288	3	96
TTP	62	336	3	E	0	M1
TTP	62	336	4	E	0	M1
HLD	63	0	5	96
TTP	63	48	5	B	0	M1
HLD	63	96	7	96
TTP	63	144	7	B	0	M1
HLD	63	192	4	96
TTP	63	240	4	B	0	M1
HLD	63	288	2	48
TTP	63	336	2	E	0	M1
TTP	63	336	3	E	0	M1
TAP	64	0	1
TAP	64	0	3
TAP	64	48	0
TAP	64	96	4
TAP	64	96	6
TAP	64	144	7
TAP	64	192	2
TAP	64	192	5
TAP	64	240	3
TAP	64	240	4
TAP	64	288	1
TAP	64	288	6
TAP	65	0	7
TAP	65	48	0
TAP	65	96	1
TAP	65	144	2
XTP	65	192	3
TAP	65	200	4
TAP	65	208	5
TAP	65	240	6
TAP	65	288	2
TAP	65	288	7
TAP	65	336	2
TAP	66	0	0
TAP	66	0	5
TAP	66	48	7
TAP	66	96	6
TAP	66	144	5
XTP	66	192	4
TAP	66	200	3
TAP	66	208	2
TAP	66	240	1
TAP	66	288	0
TAP	66	288	5
TAP	66	336	1
TAP	67	0	2
TAP	67	0	7
TAP	67	48	0
TAP	67	96	1
TAP	67	144	2
XTP	67	192	3
TAP	67	200	4
TAP	67	208	5
TAP	67	240	6
TAP	67	288	2
TAP	67	288	7
TAP	67	336	2
TAP	68	0	0
TAP	68	0	5
TAP	68	48	7
TAP	68	96	6
TAP	68	144	5
XTP	68	192	4
TAP	68	200	3
TAP	68	208	2
TAP	68	240	1
TAP	68	288	0
TAP	68	288	5
TAP	68	336	1
TAP	69	0	2
TAP	69	0	7
TAP	69	48	0
TAP	69	80	0
TAP	69	96	1
TAP	69	144	2
XTP	69	192	3
TAP	69	200	4
TAP	69	208	5
TAP	69	240	6
TAP	69	288	2
TAP	69	288	7
TAP	69	336	2
TAP	70	0	0
TAP	70	0	5
TAP	70	48	7
TAP	70	80	7
TAP	70	96	6
TAP	70	144	5
XTP	70	192	4
TAP	70	200	3
TAP	70	208	2
TAP	70	240	1
TAP	70	288	0
TAP	70	288	5
TAP	70	336	1
TAP	71	0	2
TAP	71	0	7
TAP	71	48	0
TAP	71	80	0
TAP	71	96	1
TAP	71	144	2
XTP	71	192	3
TAP	71	200	4
TAP	71	208	5
TAP	71	240	6
TAP	71	288	2
TAP	71	288	7
TAP	71	336	6
TAP	72	0	0
TAP	72	0	7
TAP	72	48	3
TAP	72	48	4
TAP	72	96	2
TAP	72	96	5
TAP	72	144	3
TAP	72	144	4
BRK	72	192	1
BRK	72	192	6

T_REC_TAP	398
T_REC_BRK	3
T_REC_XTP	31
T_REC_HLD	47
T_REC_XHO	0
T_REC_STR	73
T_REC_BST	0
T_REC_XST	5
T_REC_TTP	68
T_REC_THO	0
T_REC_SLD	78
T_REC_ALL	703
T_NUM_TAP	575
T_NUM_BRK	3
T_NUM_HLD	47
T_NUM_SLD	78
T_NUM_ALL	703
T_JUDGE_TAP	578
T_JUDGE_HLD	114
T_JUDGE_SLD	78
T_JUDGE_ALL	770
TTM_EACHPAIRS	76
TTM_SCR_TAP	287500
TTM_SCR_BRK	7800
TTM_SCR_HLD	47000
TTM_SCR_SLD	117000
TTM_SCR_ALL	459300
TTM_SCR_S	445250
TTM_SCR_SS	459000
TTM_RAT_ACV	10006

