VERSION	0.00.00	1.03.00
FES_MODE	0
BPM_DEF	128.000	128.000	128.000	128.000
MET_DEF	4	4
RESOLUTION	384
CLK_DEF	384
COMPATIBLE_CODE	MA2

BPM	0	0	128.000

HLD	1	0	3	96
HLD	1	192	2	96
HLD	2	0	1	96
HLD	2	192	0	96
HLD	2	192	7	48
HLD	3	0	7	96
HLD	3	192	6	96
HLD	4	0	5	96
HLD	4	192	3	48
HLD	4	192	4	96
TAP	5	0	3
TAP	5	96	3
HLD	5	192	3	48
TAP	5	288	2
TAP	5	288	4
TAP	6	0	5
TAP	6	96	5
HLD	6	192	5	48
HLD	6	288	4	48
TAP	7	0	3
TAP	7	0	5
TAP	7	96	2
TAP	7	96	4
HLD	7	192	1	48
HLD	7	192	3	48
TAP	7	288	1
TAP	7	288	3
HLD	8	0	2	48
HLD	8	0	4	48
HLD	8	96	3	48
HLD	8	96	5	48
STR	8	192	4
SI_	8	192	4	96	48	2
TAP	8	192	6
HLD	9	0	4	48
HLD	9	96	3	48
HLD	9	96	5	48
HLD	9	192	2	48
TAP	9	288	1
TAP	9	288	3
HLD	10	0	4	48
HLD	10	0	6	48
HLD	10	96	3	48
HLD	10	192	2	96
HLD	10	192	4	144
HLD	11	0	3	72
HLD	11	96	4	48
HLD	11	192	3	48
HLD	11	192	5	48
TAP	11	288	4
TAP	11	288	6
TAP	12	0	1
STR	12	0	3
SI_	12	0	3	96	48	7
STR	12	192	1
SI_	12	192	1	96	48	7
STR	12	192	5
SI_	12	192	5	96	48	7
TAP	13	0	1
HLD	13	0	5	96
TAP	13	96	4
HLD	13	192	2	48
HLD	13	192	3	48
TAP	13	288	0
TAP	13	288	6
HLD	14	0	1	24
HLD	14	0	7	24
STR	14	96	3
SV_	14	96	3	96	96	1
STR	14	96	5
SV_	14	96	5	96	96	7
HLD	15	0	2	48
HLD	15	0	6	48
HLD	15	96	1	48
HLD	15	96	5	48
THO	15	192	0	96	C	0	M1
HLD	16	0	7	24
HLD	16	96	0	24
TTP	16	192	0	E	0	M1
TTP	16	240	0	C	1	M1
TTP	16	288	4	E	0	M1
HLD	17	0	1	48
HLD	17	0	6	48
HLD	17	96	2	48
HLD	17	96	3	48
HLD	17	192	4	48
HLD	17	192	5	48
TAP	17	288	1
TAP	17	288	7
STR	18	0	2
SI_	18	0	2	96	48	0
STR	18	0	3
SI_	18	0	3	96	48	6
XHO	18	192	7	96
XTP	18	288	0
XTP	18	336	0
STR	19	0	1
SV_	19	0	1	96	48	4
STR	19	0	7
SV_	19	0	7	96	48	4
HLD	19	192	2	48
HLD	19	192	6	48
TAP	19	288	0
TAP	19	288	4
HLD	20	0	1	48
HLD	20	0	3	48
HLD	20	96	4	48
HLD	20	96	6	48
TTP	20	192	3	E	0	M1
TTP	20	240	4	E	0	M1
TTP	20	288	5	E	0	M1
HLD	21	0	6	72
TAP	21	0	7
HLD	21	96	4	48
TAP	21	192	0
HLD	21	192	1	72
HLD	21	288	3	48
STR	22	0	4
SI_	22	0	4	96	48	1
STR	22	0	5
SI_	22	0	5	96	48	7
XHO	22	192	0	96
XTP	22	288	7
XTP	22	336	7
HLD	23	0	0	48
HLD	23	0	1	48
HLD	23	96	2	48
HLD	23	96	3	48
HLD	23	192	4	48
HLD	23	192	5	48
STR	23	288	6
SCL	23	288	6	96	48	3
TAP	23	288	7
XST	24	0	0
SI_	24	0	0	96	48	4
HLD	24	192	7	96
BRK	24	288	0
HLD	25	0	2	96
TAP	25	0	3
TAP	25	96	0
TAP	25	192	0
TTP	25	192	2	B	0	M1
TTP	25	288	0	C	0	M1
TAP	25	288	7
TTP	26	0	5	B	0	M1
TAP	26	0	6
TTP	26	96	0	C	0	M1
TAP	26	96	7
TAP	26	192	0
TTP	26	192	2	B	0	M1
TAP	27	0	4
HLD	27	0	5	96
TAP	27	96	7
TTP	27	192	5	B	0	M1
TAP	27	192	7
TAP	27	288	0
TTP	27	288	0	C	0	M1
TAP	28	0	1
TTP	28	0	2	B	0	M1
TAP	28	96	0
TTP	28	96	0	C	0	M1
TTP	28	192	5	B	0	M1
TAP	28	192	7
TAP	29	0	2
TAP	29	0	3
STR	29	96	1
SCR	29	96	1	96	48	3
STR	29	96	4
SCR	29	96	4	96	48	6
HLD	29	288	7	288
TAP	30	0	5
TAP	30	96	1
TAP	30	192	3
TAP	30	288	0
TAP	31	0	4
TAP	31	0	5
STR	31	96	3
SCL	31	96	3	96	48	1
STR	31	96	6
SCL	31	96	6	96	48	4
HLD	31	288	0	288
TAP	32	0	2
TAP	32	96	6
TAP	32	192	4
XHO	32	288	7	24
XTP	32	336	0
HLD	33	0	1	48
HLD	33	0	6	48
HLD	33	96	4	48
HLD	33	96	5	48
HLD	33	192	1	48
HLD	33	192	3	48
TAP	33	288	0
TAP	33	288	7
HLD	34	0	2	48
HLD	34	0	3	48
HLD	34	96	4	48
HLD	34	96	6	48
XHO	34	192	0	96
XTP	34	288	7
XTP	34	336	7
TAP	35	0	2
STR	35	0	6
SLL	35	0	6	96	96	2
XHO	35	96	0	144
XTP	35	240	7
XTP	35	288	7
XTP	35	336	0
HLD	36	0	1	48
HLD	36	0	6	48
HLD	36	96	3	48
HLD	36	96	4	48
TTP	36	192	4	E	0	M1
TTP	36	240	0	C	0	M1
TTP	36	288	0	E	0	M1
HLD	37	0	2	48
HLD	37	48	3	48
HLD	37	96	1	48
HLD	37	144	4	48
HLD	37	192	0	48
HLD	37	240	5	48
HLD	37	288	7	48
HLD	37	336	6	48
HLD	38	0	3	48
HLD	38	48	5	48
HLD	38	96	2	48
HLD	38	144	6	48
HLD	38	192	1	48
HLD	38	240	7	48
XTP	38	288	0
XTP	38	336	7
XHO	39	0	1	16
HLD	39	0	6	576
XHO	39	48	1	16
XHO	39	96	1	16
XHO	39	144	1	16
XHO	39	192	1	16
XHO	39	240	1	16
XHO	39	288	1	16
XHO	39	336	1	16
XHO	40	0	1	192
BRK	40	288	3
BRK	40	288	4
HLD	41	0	5	96
TAP	41	96	7
TTP	41	192	5	B	0	M1
TTP	41	192	5	E	0	M1
TAP	41	192	7
TAP	41	288	0
TTP	41	288	0	C	0	M1
TTP	41	288	4	B	0	M1
TAP	42	0	1
TTP	42	0	2	B	0	M1
TTP	42	0	3	B	0	M1
TAP	42	96	0
TTP	42	96	0	C	0	M1
TTP	42	96	4	B	0	M1
TTP	42	192	5	B	0	M1
TTP	42	192	5	E	0	M1
TAP	42	192	7
TTP	42	288	0	B	0	M1
TTP	42	288	7	B	0	M1
HLD	43	0	2	96
TAP	43	96	0
TAP	43	192	0
TTP	43	192	2	B	0	M1
TTP	43	192	3	E	0	M1
TTP	43	288	0	C	0	M1
TTP	43	288	3	B	0	M1
TAP	43	288	7
TTP	44	0	4	B	0	M1
TTP	44	0	5	B	0	M1
TAP	44	0	6
TTP	44	96	0	C	0	M1
TTP	44	96	3	B	0	M1
TAP	44	96	7
TAP	44	192	0
TTP	44	192	2	B	0	M1
TTP	44	192	3	E	0	M1
TTP	44	288	0	C	0	M1
TAP	45	0	7
HLD	45	48	7	624
TTP	45	144	1	E	0	M1
TTP	45	240	5	E	0	M1
TTP	45	336	1	B	0	M1
TTP	45	336	1	E	0	M1
TTP	46	48	5	B	0	M1
TTP	46	48	5	E	0	M1
TTP	46	144	0	B	0	M1
TTP	46	144	1	E	0	M1
TTP	46	240	4	B	0	M1
TTP	46	240	5	E	0	M1
TAP	47	0	0
HLD	47	48	0	336
TTP	47	144	7	E	0	M1
TTP	47	240	3	E	0	M1
HLD	47	336	7	48
TAP	48	96	0
TAP	48	96	7
TAP	48	192	1
TAP	48	192	6
STR	48	288	2
SXR	48	288	2	96	480	3
STR	48	288	5
SCR	48	288	5	96	480	3
TAP	50	192	4
TAP	50	288	3
TAP	50	288	5
HLD	51	0	4	288
HLD	51	0	6	96
HLD	51	192	3	288
HLD	52	0	1	192
TAP	52	192	0
TAP	52	288	2
TAP	52	288	7
HLD	53	0	1	96
HLD	53	0	3	288
HLD	53	192	4	288
HLD	54	0	6	192
TAP	54	192	7
STR	54	288	0
SI_	54	288	0	96	48	4
TAP	54	288	5
XHO	55	96	6	192
XTP	55	288	5
XHO	56	0	1	96
XHO	56	0	2	96
TAP	56	192	3
TAP	56	192	4
BRK	56	288	1
BRK	56	288	6
TAP	57	0	0
XST	57	0	7
SI_	57	0	7	96	48	5
TAP	57	96	0
HLD	57	192	1	48
HLD	57	192	4	48
HLD	57	288	3	48
HLD	57	288	6	48
XST	58	0	4
SI_	58	0	4	96	48	1
XST	58	0	5
SI_	58	0	5	96	48	7
XHO	58	192	0	96
XTP	58	288	7
XTP	58	336	7
STR	59	0	0
SV_	59	0	0	96	48	3
STR	59	0	6
SV_	59	0	6	96	48	3
HLD	59	192	1	48
HLD	59	192	5	48
TAP	59	288	3
TAP	59	288	7
HLD	60	0	4	48
HLD	60	0	6	48
HLD	60	96	1	48
HLD	60	96	3	48
TTP	60	192	5	E	0	M1
TTP	60	240	4	E	0	M1
TTP	60	288	3	E	0	M1
XST	61	0	0
SI_	61	0	0	96	48	2
TAP	61	0	7
TAP	61	96	7
HLD	61	192	3	48
HLD	61	192	6	48
HLD	61	288	1	48
HLD	61	288	4	48
XST	62	0	2
SI_	62	0	2	96	48	0
XST	62	0	3
SI_	62	0	3	96	48	6
XHO	62	192	7	96
XTP	62	288	0
XTP	62	336	0
HLD	63	0	1	48
HLD	63	0	7	48
HLD	63	96	4	48
HLD	63	96	5	48
HLD	63	192	0	48
HLD	63	192	6	48
TAP	63	288	2
STR	63	288	3
SI_	63	288	3	96	48	7
XST	64	0	1
SI_	64	0	1	96	48	5
XTP	64	96	6
XST	64	192	7
SI_	64	192	7	96	48	3
BRK	64	288	0
HLD	65	0	1	48
HLD	65	96	3	48
HLD	65	192	5	48
TAP	65	288	4
TAP	65	288	6
HLD	66	0	0	48
HLD	66	96	2	48
HLD	66	192	4	48
HLD	66	192	6	48
TAP	66	288	3
TAP	66	288	7
HLD	67	0	6	48
HLD	67	96	4	48
HLD	67	192	2	48
TAP	67	288	1
TAP	67	288	3
HLD	68	0	7	48
HLD	68	96	5	48
HLD	68	192	1	48
HLD	68	192	3	48
TAP	68	288	0
TAP	68	288	4
HLD	69	0	1	72
HLD	69	96	3	48
HLD	69	192	2	48
HLD	69	192	4	48
TAP	69	288	0
TAP	69	288	5
HLD	70	0	6	72
HLD	70	96	4	48
HLD	70	192	3	48
HLD	70	192	5	48
TAP	70	288	2
TAP	70	288	7
HLD	71	0	4	48
HLD	71	0	5	48
HLD	71	96	2	48
HLD	71	96	3	48
HLD	71	192	0	96
HLD	71	192	7	72
BRK	71	336	0
BRK	71	336	7
XHO	72	0	1	48
XHO	72	0	6	48
XHO	72	96	2	48
XHO	72	96	5	48
XTP	72	192	3
XTP	72	192	4

T_REC_TAP	104
T_REC_BRK	8
T_REC_XTP	20
T_REC_HLD	160
T_REC_XHO	23
T_REC_STR	24
T_REC_BST	0
T_REC_XST	9
T_REC_TTP	57
T_REC_THO	1
T_REC_SLD	33
T_REC_ALL	439
T_NUM_TAP	214
T_NUM_BRK	8
T_NUM_HLD	184
T_NUM_SLD	33
T_NUM_ALL	439
T_JUDGE_TAP	222
T_JUDGE_HLD	291
T_JUDGE_SLD	33
T_JUDGE_ALL	546
TTM_EACHPAIRS	104
TTM_SCR_TAP	107000
TTM_SCR_BRK	20800
TTM_SCR_HLD	184000
TTM_SCR_SLD	49500
TTM_SCR_ALL	361300
TTM_SCR_S	349700
TTM_SCR_SS	360500
TTM_RAT_ACV	10022

