VERSION	0.00.00	1.03.00
FES_MODE	0
BPM_DEF	128.000	128.000	128.000	128.000
MET_DEF	4	4
RESOLUTION	384
CLK_DEF	384
COMPATIBLE_CODE	MA2

BPM	0	0	128.000
MET	0	0	4	4

TTP	1	0	5	E	0	L1
TTP	1	192	4	B	0	L1
TTP	2	0	3	B	0	L1
TTP	2	192	3	E	0	L1
TTP	3	0	1	E	0	L1
TTP	3	192	0	B	0	L1
TTP	4	0	7	B	0	L1
TTP	4	192	7	E	0	L1
XTP	5	0	6
TAP	5	96	6
TAP	5	192	7
TAP	5	288	7
TAP	6	0	0
TAP	6	96	0
TAP	6	192	1
TAP	6	192	7
XTP	7	0	2
TAP	7	96	2
TAP	7	192	3
TAP	7	288	3
TAP	8	0	4
TAP	8	96	4
BRK	8	192	3
BRK	8	192	5
TAP	9	0	6
TAP	9	96	6
XTP	9	192	6
XTP	9	192	7
TAP	10	0	1
TAP	10	96	1
XTP	10	192	0
XTP	10	192	1
TAP	11	0	2
TAP	11	96	2
XTP	11	192	2
XTP	11	192	3
TAP	12	0	4
TAP	12	96	3
TAP	12	96	4
BRK	12	192	2
BRK	12	192	5
HLD	13	0	6	96
TAP	13	96	7
XTP	13	192	6
XTP	13	192	7
HLD	14	0	1	96
TAP	14	96	0
XTP	14	192	0
XTP	14	192	1
HLD	15	0	2	96
TAP	15	96	3
XTP	15	192	2
XTP	15	192	3
HLD	16	0	4	96
TAP	16	96	3
BRK	16	192	2
BRK	16	192	5
TTP	17	0	6	E	0	L1
TTP	17	96	5	B	0	L1
TTP	17	192	4	B	0	L1
TTP	18	0	2	E	0	L1
TTP	18	96	2	B	0	L1
TTP	18	192	3	B	0	L1
TTP	19	0	6	B	0	L1
TTP	19	96	5	B	0	L1
TTP	19	192	5	E	0	L1
TTP	20	0	1	B	0	L1
TTP	20	96	2	B	0	L1
TTP	20	192	3	E	0	L1
TTP	21	0	6	B	0	L1
TTP	21	96	5	B	0	L1
TTP	21	192	4	B	0	L1
TTP	21	288	3	B	0	L1
TTP	22	0	2	B	0	L1
TTP	22	96	1	B	0	L1
TTP	22	192	0	B	0	L1
TTP	22	288	0	C	0	L1
TTP	23	0	6	B	0	L1
TTP	23	0	7	B	0	L1
TTP	23	96	4	B	0	L1
TTP	23	96	5	B	0	L1
TTP	23	192	2	B	0	L1
TTP	23	192	3	B	0	L1
TTP	23	288	0	B	0	L1
TTP	23	288	1	B	0	L1
THO	24	0	0	192	C	1	L1
HLD	25	0	6	192
HLD	25	192	7	192
HLD	26	0	0	192
BRK	26	192	1
HLD	27	0	2	192
HLD	27	192	3	192
HLD	28	0	4	192
BRK	28	192	5
TAP	29	0	6
TAP	29	96	6
TAP	29	192	6
TAP	29	192	7
TAP	30	0	1
TAP	30	96	1
BRK	30	192	0
BRK	30	192	1
TAP	31	0	2
TAP	31	96	2
TAP	31	192	2
TAP	31	192	3
TAP	32	0	5
TAP	32	96	5
XTP	32	192	4
XTP	32	192	5
TAP	33	0	6
TAP	33	96	6
TAP	33	192	7
TAP	33	288	7
TAP	34	0	0
TAP	34	96	0
XTP	34	192	1
XTP	34	192	7
TAP	35	0	2
TAP	35	96	2
TAP	35	192	3
TAP	35	288	3
TAP	36	0	4
TAP	36	96	4
BRK	36	192	3
BRK	36	192	5
TAP	37	0	6
TAP	37	48	6
TAP	37	96	6
TAP	37	192	6
TAP	37	192	7
TAP	37	288	0
TAP	37	288	5
TAP	38	0	1
TAP	38	48	1
TAP	38	96	1
TAP	38	192	0
TAP	38	192	1
TAP	38	288	2
TAP	38	288	7
TAP	39	0	6
TAP	39	48	6
TAP	39	96	6
TAP	39	192	5
TAP	39	240	5
TAP	39	288	5
XTP	40	0	3
XTP	40	0	4
TTP	40	192	0	C	1	L1
TTP	40	192	2	B	0	L1
TTP	40	192	5	B	0	L1
STR	41	0	7
SI_	41	0	7	96	144	3
STR	42	0	1
SI_	42	0	1	96	144	5
STR	43	0	6
SI_	43	0	6	96	144	3
TAP	44	0	2
TAP	44	96	2
TAP	44	192	2
TAP	44	192	3
STR	45	0	1
SUR	45	0	1	96	144	5
TAP	46	0	6
TAP	46	96	6
TAP	46	192	6
TAP	46	192	7
STR	47	0	6
SUL	47	0	6	96	144	2
TAP	48	0	1
TAP	48	96	1
BRK	48	192	0
BRK	48	192	7
HLD	49	0	6	192
HLD	49	192	7	192
HLD	50	0	0	192
TAP	50	192	1
HLD	51	0	2	192
HLD	51	192	3	192
HLD	52	0	4	192
TAP	52	192	5
TTP	53	0	6	B	0	L1
TTP	53	0	7	B	0	L1
TTP	53	192	0	B	0	L1
TTP	53	192	1	B	0	L1
TTP	54	0	3	E	0	L1
TTP	54	96	4	E	0	L1
TTP	54	192	5	E	0	L1
TTP	55	0	6	B	0	L1
TTP	55	0	7	E	0	L1
TTP	55	192	1	B	0	L1
TTP	55	192	1	E	0	L1
TTP	56	0	3	E	0	L1
TTP	56	96	5	E	0	L1
TTP	56	192	0	C	0	L1
TAP	57	0	6
TAP	57	96	6
TAP	57	96	7
TAP	57	192	5
TAP	57	240	5
TAP	57	288	4
TAP	57	288	6
TAP	58	0	2
TAP	58	96	2
TAP	58	96	3
TAP	58	192	1
TAP	58	240	1
TAP	58	288	0
TAP	58	288	7
TAP	59	0	1
TAP	59	96	0
TAP	59	96	1
TAP	59	192	2
TAP	59	240	2
TAP	59	288	1
TAP	59	288	3
TAP	60	0	5
TAP	60	96	4
TAP	60	96	5
TAP	60	192	6
TAP	60	240	6
BRK	60	288	0
BRK	60	288	7
TAP	61	0	6
TAP	61	96	6
TAP	61	96	7
TAP	61	192	5
TAP	61	240	5
TAP	61	288	4
TAP	61	288	6
TAP	62	0	2
TAP	62	96	2
TAP	62	96	3
TAP	62	192	1
TAP	62	240	1
TAP	62	288	0
TAP	62	288	7
TAP	63	0	1
TAP	63	96	0
TAP	63	96	1
TAP	63	192	2
TAP	63	240	2
TAP	63	288	1
TAP	63	288	3
TAP	64	0	2
TAP	64	0	5
TAP	64	96	4
TAP	64	96	6
BRK	64	192	0
BRK	64	192	7
TAP	65	0	1
TAP	65	96	1
TAP	65	192	0
TAP	65	288	0
TAP	66	0	7
TAP	66	96	7
TAP	66	192	0
TAP	66	192	6
TAP	67	0	5
TAP	67	96	5
TAP	67	192	4
TAP	67	288	4
TAP	68	0	3
TAP	68	96	3
TAP	68	192	2
TAP	68	192	4
TAP	69	0	2
TAP	69	96	2
TAP	69	192	3
TAP	69	288	3
TAP	70	0	4
TAP	70	96	4
TAP	70	192	3
TAP	70	192	5
TAP	71	0	6
TAP	71	96	6
TAP	71	192	7
TAP	71	288	7
TAP	72	0	0
TAP	72	0	7
TAP	72	96	1
TAP	72	96	6
BRK	72	192	2
BRK	72	192	5

T_REC_TAP	164
T_REC_BRK	20
T_REC_XTP	20
T_REC_HLD	16
T_REC_XHO	0
T_REC_STR	5
T_REC_BST	0
T_REC_XST	0
T_REC_TTP	53
T_REC_THO	1
T_REC_SLD	5
T_REC_ALL	284
T_NUM_TAP	242
T_NUM_BRK	20
T_NUM_HLD	17
T_NUM_SLD	5
T_NUM_ALL	284
T_JUDGE_TAP	262
T_JUDGE_HLD	60
T_JUDGE_SLD	5
T_JUDGE_ALL	327
TTM_EACHPAIRS	48
TTM_SCR_TAP	121000
TTM_SCR_BRK	52000
TTM_SCR_HLD	17000
TTM_SCR_SLD	7500
TTM_SCR_ALL	197500
TTM_SCR_S	189650
TTM_SCR_SS	195500
TTM_RAT_ACV	10102

