VERSION	0.00.00	1.03.00
FES_MODE	0
BPM_DEF	128.000	128.000	128.000	128.000
MET_DEF	4	4
RESOLUTION	384
CLK_DEF	384
COMPATIBLE_CODE	MA2

BPM	0	0	128.000
MET	0	0	4	4

TAP	5	0	0
TAP	6	0	0
TAP	7	0	7
TAP	8	0	7
TAP	9	0	0
TAP	10	0	1
TAP	11	0	2
TAP	12	0	3
TAP	12	0	4
TAP	13	0	3
TAP	13	0	4
TAP	14	0	5
TAP	15	0	6
TAP	16	0	0
TAP	16	0	7
TAP	17	0	7
TAP	17	192	7
TAP	18	0	6
TAP	19	0	5
TAP	19	192	5
TAP	20	0	4
TAP	21	0	3
TAP	21	192	3
TAP	22	0	2
TAP	23	0	1
TAP	23	192	1
BRK	24	0	0
BRK	24	0	7
TTP	25	0	0	B	0	L1
TTP	25	192	1	B	0	L1
TTP	26	0	2	B	0	L1
TTP	26	192	3	B	0	L1
TTP	27	0	4	B	0	L1
TTP	27	192	5	B	0	L1
TTP	28	0	6	B	0	L1
TTP	28	192	0	C	0	L1
TTP	29	0	7	B	0	L1
TTP	29	192	6	B	0	L1
TTP	30	0	5	B	0	L1
TTP	30	192	4	B	0	L1
TTP	31	0	3	B	0	L1
TTP	31	192	2	B	0	L1
TTP	32	0	0	C	0	L1
TAP	33	0	0
TAP	33	192	0
TAP	34	0	1
TAP	34	192	1
TAP	35	0	2
TAP	35	192	2
TAP	36	0	3
TAP	36	0	4
TAP	37	0	4
TAP	37	192	4
TAP	38	0	5
TAP	38	192	5
TAP	39	0	6
HLD	39	192	0	192
HLD	39	192	7	192
STR	41	0	7
SI_	41	0	7	96	288	4
STR	43	0	0
SI_	43	0	0	96	288	3
STR	45	0	7
SI_	45	0	7	96	288	3
TAP	47	0	0
TAP	47	192	0
BRK	48	0	0
BRK	48	0	7
STR	49	0	0
SI_	49	0	0	96	288	5
STR	51	0	6
SI_	51	0	6	96	288	3
STR	53	0	2
SI_	53	0	2	96	288	6
STR	55	0	7
SI_	55	0	7	96	288	2
TAP	57	0	0
TAP	57	96	0
TAP	57	192	0
TAP	58	0	1
TAP	58	192	1
TAP	59	0	2
TAP	59	96	2
TAP	59	192	2
TAP	60	0	3
TAP	60	0	4
TAP	60	192	3
TAP	60	192	4
TAP	61	0	4
TAP	61	96	4
TAP	61	192	4
TAP	62	0	5
TAP	62	192	5
TAP	63	0	6
TAP	63	96	6
TAP	63	192	6
TAP	64	0	7
TAP	64	96	7
BRK	64	192	0
BRK	64	192	7
HLD	65	0	7	192
TAP	66	0	7
TAP	66	192	6
HLD	67	0	5	192
TAP	68	0	5
TAP	68	192	3
TAP	68	192	4
HLD	69	0	2	192
TAP	70	0	2
TAP	70	192	1
HLD	71	0	0	192
TAP	72	0	0
TAP	72	96	0
TAP	72	192	0
TAP	72	192	7

T_REC_TAP	74
T_REC_BRK	6
T_REC_XTP	0
T_REC_HLD	6
T_REC_XHO	0
T_REC_STR	7
T_REC_BST	0
T_REC_XST	0
T_REC_TTP	15
T_REC_THO	0
T_REC_SLD	7
T_REC_ALL	115
T_NUM_TAP	96
T_NUM_BRK	6
T_NUM_HLD	6
T_NUM_SLD	7
T_NUM_ALL	115
T_JUDGE_TAP	102
T_JUDGE_HLD	24
T_JUDGE_SLD	7
T_JUDGE_ALL	133
TTM_EACHPAIRS	12
TTM_SCR_TAP	48000
TTM_SCR_BRK	15600
TTM_SCR_HLD	6000
TTM_SCR_SLD	10500
TTM_SCR_ALL	80100
TTM_SCR_S	77150
TTM_SCR_SS	79500
TTM_RAT_ACV	10075

