VERSION	0.00.00	1.03.00
FES_MODE	0
BPM_DEF	147.000	147.000	147.000	147.000
MET_DEF	4	4
RESOLUTION	384
CLK_DEF	384
COMPATIBLE_CODE	MA2

BPM	0	0	147.000
MET	0	0	4	4

TAP	1	0	2
HLD	1	48	2	144
TTP	1	96	4	E	0	M1
TAP	1	240	3
TAP	1	288	2
TAP	1	288	4
TAP	2	0	5
HLD	2	48	5	144
TTP	2	96	4	E	0	M1
TAP	2	240	4
TAP	2	288	3
TAP	2	288	5
TAP	3	0	2
HLD	3	48	2	144
TTP	3	96	4	E	0	M1
TAP	3	240	3
TAP	3	288	2
TAP	3	288	4
TAP	4	0	5
HLD	4	48	5	144
TTP	4	96	4	E	0	M1
TAP	4	240	4
TAP	4	288	3
TAP	4	288	5
TAP	5	0	2
HLD	5	48	2	144
TTP	5	96	4	E	0	M1
TAP	5	240	3
TAP	5	288	2
TAP	5	288	4
TAP	6	0	5
HLD	6	48	5	144
TTP	6	96	4	E	0	M1
TAP	6	240	4
TAP	6	288	3
TAP	6	288	5
TAP	7	0	2
HLD	7	48	2	144
TTP	7	96	4	E	0	M1
TAP	7	240	3
TAP	7	288	2
TAP	7	288	4
TAP	8	0	5
HLD	8	48	5	240
TAP	8	288	4
HLD	9	0	5	48
HLD	9	0	6	48
HLD	9	96	4	48
HLD	9	96	7	48
HLD	9	192	0	48
HLD	9	192	3	48
TAP	9	288	1
TAP	9	288	2
HLD	10	0	5	48
HLD	10	0	6	48
HLD	10	96	4	48
HLD	10	96	7	48
HLD	10	192	0	48
HLD	10	192	3	48
TAP	10	288	1
TAP	10	288	2
STR	11	0	4
SI_	11	0	4	96	48	6
TAP	11	48	4
TAP	11	96	2
STR	11	192	4
SI_	11	192	4	96	48	7
TAP	11	240	4
TAP	11	288	3
STR	12	0	3
SI_	12	0	3	96	48	0
TAP	12	48	3
TAP	12	96	4
STR	12	192	3
SI_	12	192	3	96	48	1
TAP	12	240	5
STR	12	288	4
SI_	12	288	4	96	48	6
STR	13	0	3
SI_	13	0	3	96	48	7
STR	13	96	4
SI_	13	96	4	96	48	0
STR	13	192	3
SI_	13	192	3	96	48	1
STR	13	288	4
SI_	13	288	4	96	48	6
STR	14	0	3
SI_	14	0	3	96	48	7
STR	14	96	4
SI_	14	96	4	96	48	0
STR	14	192	3
SI_	14	192	3	96	48	1
TAP	14	288	5
HLD	14	336	5	96
TAP	15	48	1
HLD	15	96	1	384
TAP	15	192	4
TAP	15	240	4
TAP	15	336	2
TAP	16	0	2
TAP	16	48	3
TAP	16	96	3
TAP	16	144	2
TAP	16	192	1
STR	16	288	0
SI_	16	288	0	96	48	3
TAP	16	288	3
TAP	17	0	0
TAP	17	0	5
HLD	17	96	4	48
HLD	17	96	6	48
HLD	17	192	3	48
HLD	17	192	7	48
HLD	17	288	0	48
HLD	17	288	4	48
HLD	18	0	3	48
HLD	18	0	7	48
HLD	18	96	0	48
HLD	18	96	4	48
HLD	18	192	1	48
HLD	18	192	3	48
TAP	18	288	2
TAP	19	0	5
TAP	19	0	7
TAP	19	48	4
TAP	19	96	0
TAP	19	96	6
TAP	19	144	4
TAP	19	192	1
TAP	19	192	7
TAP	19	240	3
TAP	19	288	0
TAP	19	288	2
TAP	19	336	3
TAP	20	48	0
TAP	20	144	0
TAP	20	240	0
TAP	20	288	1
TAP	20	288	3
TAP	21	0	2
TAP	21	48	3
TAP	21	96	4
TAP	21	144	5
HLD	21	192	5	96
TAP	21	288	4
HLD	21	336	3	96
TAP	22	48	4
TAP	22	144	2
TAP	22	192	3
TAP	22	240	4
TAP	22	288	5
TAP	22	336	5
STR	23	0	3
SI_	23	0	3	96	48	0
STR	23	96	4
SI_	23	96	4	96	48	7
TAP	23	192	2
TAP	23	240	2
TAP	23	288	3
STR	23	336	1
SI_	23	336	1	96	48	5
TAP	24	0	1
STR	24	48	6
SI_	24	48	6	96	48	2
TAP	24	96	6
XTP	24	144	3
XTP	24	192	3
XTP	24	240	4
XTP	24	288	3
XTP	24	336	4
TAP	25	0	5
TAP	25	48	4
TAP	25	96	3
TAP	25	144	2
HLD	25	192	2	96
TAP	25	288	3
HLD	25	336	4	96
TAP	26	48	3
TAP	26	144	5
TAP	26	192	4
TAP	26	240	3
STR	26	288	2
SI_	26	288	2	96	48	5
STR	27	0	6
SI_	27	0	6	96	48	1
STR	27	96	2
SI_	27	96	2	96	48	5
TAP	27	192	6
TAP	27	240	6
TAP	27	288	4
STR	27	336	3
SUL	27	336	3	96	144	2
TAP	27	336	7
TAP	28	288	2
HLD	28	336	2	336
HLD	29	48	3	48
HLD	29	144	4	48
HLD	29	240	3	48
HLD	29	336	4	48
HLD	30	0	1	288
HLD	30	48	3	48
HLD	30	144	4	48
HLD	30	240	2	48
XHO	30	336	3	48
HLD	31	0	0	288
HLD	31	48	2	48
HLD	31	144	3	48
HLD	31	240	1	48
HLD	31	336	3	48
HLD	32	0	0	288
HLD	32	48	2	48
HLD	32	144	4	48
HLD	32	240	3	48
TAP	32	336	5
HLD	33	0	6	288
HLD	33	48	4	48
HLD	33	144	3	48
HLD	33	240	5	48
HLD	33	336	4	48
HLD	34	0	7	288
HLD	34	48	5	48
HLD	34	144	4	48
HLD	34	240	6	48
HLD	34	336	4	48
HLD	35	0	7	240
HLD	35	48	5	48
HLD	35	144	3	48
TAP	35	240	4
TAP	35	288	4
TAP	35	336	3
TAP	35	336	6
TAP	36	48	1
TAP	36	48	4
TAP	36	144	2
TAP	36	144	5
TAP	36	240	3
TAP	36	240	4
STR	36	288	3
SI_	36	288	3	96	48	1
TAP	36	288	4
STR	37	0	4
SI_	37	0	4	96	48	0
TAP	37	48	5
STR	37	96	3
SI_	37	96	3	96	48	1
TAP	37	144	2
STR	37	192	4
SI_	37	192	4	96	48	0
TAP	37	240	5
STR	37	288	3
SI_	37	288	3	96	48	1
TAP	37	336	2
STR	38	0	4
SI_	38	0	4	96	48	0
TAP	38	48	5
STR	38	96	3
SI_	38	96	3	96	48	1
TAP	38	144	2
STR	38	192	4
SI_	38	192	4	96	48	0
TAP	38	240	5
TAP	38	288	3
TAP	38	336	3
TAP	39	0	2
STR	39	0	4
SI_	39	0	4	96	48	6
TAP	39	96	3
TAP	39	96	4
TAP	39	192	2
STR	39	192	4
SI_	39	192	4	96	48	6
TAP	39	288	4
TTP	39	288	4	E	0	M1
TAP	40	0	2
STR	40	0	4
SI_	40	0	4	96	48	6
TTP	40	96	3	B	0	M1
TAP	40	96	4
TTP	40	96	4	E	0	M1
TAP	40	192	2
STR	40	192	4
SI_	40	192	4	96	48	6
TAP	40	240	1
TTP	40	288	2	B	0	M1
TTP	40	288	2	E	0	M1
TTP	40	288	3	B	0	M1
TAP	40	288	4
TAP	41	0	6
TAP	41	0	7
TAP	41	48	5
TAP	41	96	6
TAP	41	96	7
TAP	41	144	5
TAP	41	192	6
TAP	41	192	7
TAP	41	240	4
TAP	41	288	6
TAP	41	288	7
TAP	41	336	4
TAP	42	0	6
TAP	42	0	7
TAP	42	48	4
TAP	42	96	0
TAP	42	96	6
TAP	42	144	3
TAP	42	192	1
TAP	42	192	7
TAP	42	240	3
TAP	42	288	0
TAP	42	288	1
TAP	42	336	2
TAP	43	0	3
TAP	43	48	2
TAP	43	48	4
HLD	43	96	2	48
HLD	43	96	4	48
TAP	43	192	0
TAP	43	192	6
HLD	43	240	0	48
HLD	43	240	6	48
TAP	43	336	1
TAP	44	0	2
TAP	44	48	3
TAP	44	96	4
TAP	44	144	5
STR	44	192	2
SCL	44	192	2	96	48	7
STR	44	192	6
SCL	44	192	6	96	48	3
TAP	44	288	2
TAP	44	288	6
STR	45	0	0
SI_	45	0	0	96	48	3
STR	45	0	4
SI_	45	0	4	96	48	7
TAP	45	48	1
TAP	45	48	5
XTP	45	96	0
XTP	45	96	4
TAP	45	192	2
TAP	45	192	7
TAP	45	240	1
TAP	45	288	2
TAP	45	288	4
TAP	45	336	1
TAP	46	0	2
TAP	46	0	4
TAP	46	48	0
TAP	46	96	2
TAP	46	96	4
TAP	46	144	0
TAP	46	192	2
TAP	46	192	4
TAP	46	240	1
TAP	46	288	2
TAP	46	288	4
TAP	46	336	1
STR	47	0	4
SI_	47	0	4	96	48	7
STR	47	0	5
SI_	47	0	5	96	48	7
TAP	47	48	3
STR	47	192	2
SI_	47	192	2	96	48	0
STR	47	192	3
SI_	47	192	3	96	48	0
TAP	47	240	4
STR	48	0	4
SI_	48	0	4	96	48	7
STR	48	0	5
SI_	48	0	5	96	48	7
TAP	48	48	3
STR	48	192	2
SI_	48	192	2	96	48	0
STR	48	192	3
SI_	48	192	3	96	48	0
TAP	48	240	4
XST	49	0	7
SF_	49	0	7	96	48	3
XTP	49	24	6
XTP	49	48	5
XTP	49	96	7
TTP	49	192	4	B	0	M1
TTP	49	192	4	E	0	M1
TTP	49	192	5	B	0	M1
TTP	49	288	0	E	0	M1
TTP	49	288	6	B	0	M1
TTP	49	288	6	E	0	M1
TTP	49	288	7	B	0	M1
TTP	50	0	2	B	0	M1
TTP	50	0	2	E	0	M1
TTP	50	0	3	B	0	M1
TTP	50	0	4	E	0	M1
TTP	50	96	0	B	0	M1
TTP	50	96	0	E	0	M1
TTP	50	96	1	B	0	M1
TTP	50	192	4	B	0	M1
TTP	50	192	4	E	0	M1
TTP	50	288	3	E	0	M1
STR	51	0	5
SI_	51	0	5	96	48	2
STR	51	0	6
SI_	51	0	6	96	48	1
TAP	51	48	5
TAP	51	48	6
STR	51	192	1
SI_	51	192	1	96	48	6
STR	51	192	2
SI_	51	192	2	96	48	5
TAP	51	240	1
TAP	51	240	2
STR	52	0	5
SI_	52	0	5	96	48	2
STR	52	0	6
SI_	52	0	6	96	48	1
TAP	52	48	5
TAP	52	48	6
STR	52	192	1
SI_	52	192	1	96	48	6
STR	52	192	2
SI_	52	192	2	96	48	5
TAP	52	240	1
TAP	52	240	2
BST	53	0	7
SLL	53	0	7	96	2496	2
TAP	54	288	1
XTP	55	0	0
XTP	55	48	0
TAP	55	96	1
TAP	55	144	0
TAP	55	192	7
TAP	55	240	7
TAP	55	288	0
TAP	55	336	0
XTP	56	0	6
XTP	56	48	6
TAP	56	96	7
TAP	56	144	6
TAP	56	192	0
TAP	56	240	0
TAP	56	288	7
TAP	56	336	7
XTP	57	0	0
XTP	57	48	0
TAP	57	96	1
TAP	57	144	0
TAP	57	192	7
TAP	57	240	7
TAP	57	288	0
TAP	57	336	0
XTP	58	0	6
XTP	58	48	6
TAP	58	96	7
TAP	58	144	6
TAP	58	192	0
TAP	58	240	0
TAP	58	288	7
TAP	58	336	7
TAP	59	0	1
TAP	59	48	1
TAP	59	96	0
TAP	59	144	7
TAP	59	192	6
TAP	59	240	6
TAP	59	288	7
TAP	59	336	0
TAP	60	0	1
TAP	60	48	1
TAP	60	96	6
TAP	60	144	6
TAP	60	192	0
XTP	60	240	0
XTP	60	240	7
XTP	60	288	0
XTP	60	288	7
STR	61	0	2
SI_	61	0	2	96	48	7
TAP	61	0	3
HLD	61	48	2	96
TAP	61	48	3
TAP	61	192	4
STR	61	192	5
SI_	61	192	5	96	48	0
TAP	61	240	4
HLD	61	240	5	96
STR	62	0	2
SI_	62	0	2	96	48	7
TAP	62	0	3
HLD	62	48	2	96
TAP	62	48	3
TAP	62	192	4
STR	62	192	5
SI_	62	192	5	96	48	2
TAP	62	240	4
HLD	62	240	5	96
TAP	63	0	0
STR	63	0	1
SI_	63	0	1	96	48	4
TAP	63	48	0
HLD	63	48	1	96
STR	63	192	6
SI_	63	192	6	96	48	3
TAP	63	192	7
HLD	63	240	6	96
TAP	63	240	7
TAP	64	0	0
STR	64	0	1
SI_	64	0	1	96	48	4
TAP	64	48	0
HLD	64	48	1	96
TAP	64	192	6
STR	64	192	7
SI_	64	192	7	96	48	4
TAP	64	240	6
HLD	64	240	7	96
TAP	65	0	3
TAP	65	0	6
TAP	65	48	3
TAP	65	48	6
TAP	65	96	2
TAP	65	144	2
TAP	65	192	1
TAP	65	192	4
TAP	65	240	1
TAP	65	240	4
TAP	65	288	5
TAP	65	336	5
TAP	66	0	3
TAP	66	0	6
TAP	66	48	3
TAP	66	48	6
TAP	66	96	2
TAP	66	144	2
TAP	66	192	1
TAP	66	192	4
TAP	66	240	1
TAP	66	240	4
TAP	66	288	5
TAP	66	336	5
TAP	67	0	4
TAP	67	0	6
TAP	67	48	4
TAP	67	48	6
TAP	67	96	3
TAP	67	144	2
TAP	67	192	1
TAP	67	192	3
TAP	67	240	1
TAP	67	240	3
TAP	67	288	4
TAP	67	336	2
TAP	67	336	5
TAP	68	48	3
TAP	68	48	6
TAP	68	144	1
TAP	68	144	4
BRK	68	240	0
BRK	68	240	7
BRK	68	288	0
BRK	68	288	7
STR	70	96	0
SUL	70	96	0	96	96	3
STR	70	96	7
SUR	70	96	7	96	96	4
STR	71	0	3
SI_	71	0	3	96	48	7
TAP	71	0	5
TAP	71	48	2
STR	71	96	4
SI_	71	96	4	96	48	0
TAP	71	144	5
STR	71	192	3
SI_	71	192	3	96	48	1
TAP	71	240	2
STR	71	288	4
SI_	71	288	4	96	48	6
TAP	71	336	5
STR	72	0	3
SI_	72	0	3	96	48	7
TAP	72	48	2
STR	72	96	4
SI_	72	96	4	96	48	0
TAP	72	144	5
STR	72	192	3
SI_	72	192	3	96	48	1
TAP	72	240	2
TAP	72	288	4
TAP	72	336	4
STR	73	0	5
SI_	73	0	5	96	48	7
TAP	73	48	4
TAP	73	96	3
TAP	73	96	5
TAP	73	144	2
STR	73	192	4
SI_	73	192	4	96	48	7
TAP	73	240	3
TAP	73	288	2
TAP	73	288	4
TAP	73	336	1
STR	74	0	3
SI_	74	0	3	96	48	7
TAP	74	48	2
TAP	74	96	1
TAP	74	96	3
TAP	74	144	0
STR	74	192	2
SI_	74	192	2	96	48	7
STR	74	192	6
SI_	74	192	6	96	48	3
TAP	74	240	1
TAP	74	240	5
TAP	74	288	2
TAP	74	288	6
TAP	75	0	6
TAP	75	0	7
TAP	75	48	4
TAP	75	48	5
XTP	75	96	0
XTP	75	96	6
XTP	75	144	3
XTP	75	144	4
TAP	75	192	1
TAP	75	192	7
TAP	75	240	3
TAP	75	240	4
TAP	75	288	0
TAP	75	288	1
TAP	75	336	2
TAP	75	336	3
TAP	76	0	6
TAP	76	0	7
TAP	76	48	4
TAP	76	48	5
TAP	76	96	0
TAP	76	96	6
TAP	76	144	4
HLD	76	192	2	48
TAP	76	240	3
TAP	76	288	0
TAP	76	288	1
TAP	76	336	2
TAP	76	336	4
STR	77	0	3
SCL	77	0	3	96	48	0
STR	77	0	7
SCL	77	0	7	96	48	4
TAP	77	48	3
TAP	77	48	7
STR	77	192	1
SCL	77	192	1	96	48	6
STR	77	192	5
SCL	77	192	5	96	48	2
TAP	77	240	1
TAP	77	240	5
XTP	78	0	2
XTP	78	0	5
XTP	78	48	3
XTP	78	48	4
XTP	78	96	2
XTP	78	96	5
XTP	78	144	3
XTP	78	144	4
XTP	78	192	1
XTP	78	192	6
XTP	78	240	3
XTP	78	240	4
XTP	78	288	1
XTP	78	288	6
XTP	78	336	2
XTP	78	336	5
XST	79	0	3
SI_	79	0	3	96	48	0
XST	79	0	4
SI_	79	0	4	96	48	7
BRK	79	96	3
BRK	79	96	4
BRK	79	192	0
BRK	79	192	7
TAP	79	288	1
TAP	79	288	3
TAP	79	336	0
TAP	79	336	4
TAP	80	0	2
TAP	80	0	3
TAP	80	48	0
TAP	80	48	4
TAP	80	96	1
TAP	80	96	2
TAP	80	144	0
TAP	80	144	4
TAP	80	192	1
TAP	80	192	3
TAP	80	240	0
TAP	80	240	4
TAP	80	288	2
TAP	80	288	3
TAP	80	336	1
TAP	80	336	4
STR	81	0	5
SI_	81	0	5	96	48	7
TAP	81	48	3
TAP	81	96	2
TAP	81	96	5
TAP	81	144	3
HLD	81	192	4	96
TAP	81	240	2
TAP	81	288	3
TAP	81	336	2
STR	82	0	3
SI_	82	0	3	96	48	0
TAP	82	48	5
TAP	82	96	3
TAP	82	96	4
TAP	82	144	5
TAP	82	192	2
TAP	82	192	4
XTP	82	240	1
XTP	82	240	5
XTP	82	288	1
XST	82	288	5
SI_	82	288	5	96	48	2
XST	83	0	3
SI_	83	0	3	96	48	0
XTP	83	0	5
XST	83	96	1
SI_	83	96	1	96	48	6
XTP	83	96	3
XTP	83	192	1
XST	83	192	7
SI_	83	192	7	96	48	4
XST	83	288	5
SI_	83	288	5	96	48	2
XTP	83	288	7
XST	84	0	3
SI_	84	0	3	96	48	0
XTP	84	0	5
XST	84	96	1
SI_	84	96	1	96	48	6
XTP	84	96	3
XTP	84	192	1
XST	84	192	7
SI_	84	192	7	96	48	4
XTP	84	288	3
XTP	84	336	3
TAP	85	48	2
TAP	85	48	5
TAP	85	96	2
TAP	85	96	5
TAP	85	144	6
TAP	85	192	0
TAP	85	192	7
TAP	85	240	0
TAP	85	240	7
TAP	85	288	1
TAP	85	336	2
TAP	85	336	4
TAP	86	0	2
TAP	86	0	4
TAP	86	48	5
TAP	86	96	4
TAP	86	96	6
TAP	86	144	4
TAP	86	144	6
STR	86	192	3
SCL	86	192	3	96	48	0
STR	86	192	7
SCL	86	192	7	96	48	4
BRK	86	288	3
STR	86	288	7
SI_	86	288	7	96	48	3
BRK	87	0	7

T_REC_TAP	402
T_REC_BRK	10
T_REC_XTP	54
T_REC_HLD	83
T_REC_XHO	1
T_REC_STR	84
T_REC_BST	1
T_REC_XST	11
T_REC_TTP	30
T_REC_THO	0
T_REC_SLD	96
T_REC_ALL	772
T_NUM_TAP	581
T_NUM_BRK	11
T_NUM_HLD	84
T_NUM_SLD	96
T_NUM_ALL	772
T_JUDGE_TAP	592
T_JUDGE_HLD	158
T_JUDGE_SLD	96
T_JUDGE_ALL	846
TTM_EACHPAIRS	177
TTM_SCR_TAP	290500
TTM_SCR_BRK	28600
TTM_SCR_HLD	84000
TTM_SCR_SLD	144000
TTM_SCR_ALL	547100
TTM_SCR_S	529650
TTM_SCR_SS	546000
TTM_RAT_ACV	10020

