VERSION	0.00.00	1.03.00
FES_MODE	0
BPM_DEF	147.000	147.000	147.000	147.000
MET_DEF	4	4
RESOLUTION	384
CLK_DEF	384
COMPATIBLE_CODE	MA2

BPM	0	0	147.000
MET	0	0	4	4

HLD	1	0	3	96
TAP	1	96	4
TAP	1	240	3
TAP	1	288	4
HLD	2	0	3	96
TAP	2	96	4
TAP	2	240	3
TAP	2	288	4
HLD	3	0	3	96
TAP	3	96	4
TAP	3	240	3
TAP	3	288	4
HLD	4	0	3	96
TAP	4	96	4
TAP	4	240	3
TAP	4	288	2
TAP	4	288	4
HLD	5	0	4	96
TAP	5	96	3
TAP	5	240	4
TAP	5	288	3
HLD	6	0	4	96
TAP	6	96	3
TAP	6	240	4
TAP	6	288	3
HLD	7	0	4	96
TAP	7	96	3
TAP	7	240	4
TAP	7	288	3
HLD	8	0	4	288
BRK	9	0	2
BRK	9	0	6
TAP	9	96	1
TAP	9	96	3
TAP	9	192	2
TAP	9	192	6
TAP	9	288	1
TAP	9	288	3
HLD	10	0	2	96
TAP	10	0	6
TAP	10	96	3
TAP	10	192	1
TAP	10	192	4
HLD	10	288	3	96
TAP	10	288	6
TAP	11	0	2
HLD	11	96	3	96
TAP	11	96	6
TAP	11	192	2
TAP	11	288	4
TAP	11	288	6
TAP	11	336	4
TAP	11	336	6
TAP	12	48	2
TAP	12	48	4
TAP	12	144	4
TAP	12	144	6
TAP	12	240	0
TAP	12	240	4
TAP	12	288	0
TAP	12	288	4
XTP	13	0	1
XTP	13	0	5
TAP	13	96	4
TAP	13	96	6
TAP	13	192	1
TAP	13	192	5
TAP	13	288	4
TAP	13	288	6
TAP	14	0	1
HLD	14	0	5	96
TAP	14	96	4
TAP	14	192	3
TAP	14	192	6
TAP	14	288	1
TAP	14	288	4
TAP	14	336	1
TAP	14	336	4
TAP	15	48	5
TAP	15	96	4
TAP	15	96	5
TAP	15	192	2
TAP	15	240	2
TAP	15	240	3
TAP	15	336	4
TAP	16	0	3
TAP	16	0	4
TAP	16	96	1
TAP	16	96	3
STR	16	192	4
SI_	16	192	4	96	48	0
TAP	16	192	6
BRK	17	0	7
TAP	17	96	5
TAP	17	192	4
TAP	17	288	3
HLD	17	336	3	288
TAP	18	48	4
TAP	18	144	2
TAP	18	240	4
TAP	18	336	1
TAP	19	0	1
TAP	19	96	2
TAP	19	192	3
TAP	19	288	4
HLD	19	336	4	288
TAP	20	48	1
TAP	20	144	1
TAP	20	240	1
XTP	20	288	3
XTP	20	288	4
STR	21	0	5
SI_	21	0	5	96	48	3
TAP	21	192	2
TAP	21	288	3
TAP	21	336	3
HLD	22	48	2	144
HLD	22	48	4	240
TAP	22	288	3
TAP	23	0	4
TAP	23	0	5
TAP	23	96	6
TAP	23	192	4
TAP	23	192	5
TAP	23	288	6
TAP	23	336	6
TAP	24	48	4
TAP	24	48	5
HLD	24	144	6	144
TAP	24	288	4
STR	25	0	2
SI_	25	0	2	96	48	4
TAP	25	192	5
TAP	25	288	4
TAP	25	336	4
HLD	26	48	3	240
HLD	26	48	5	144
TAP	26	288	4
TAP	27	0	2
TAP	27	0	3
TAP	27	96	1
TAP	27	192	2
TAP	27	192	3
TAP	27	288	1
TAP	27	336	1
STR	28	48	2
SI_	28	48	2	96	48	5
TAP	28	48	3
TAP	28	288	3
TAP	28	288	4
XTP	29	0	1
XTP	29	0	6
TAP	29	96	2
HLD	29	144	2	912
TAP	29	288	3
TAP	29	336	3
TAP	30	96	1
TAP	30	144	1
TAP	30	288	3
TAP	30	336	3
TAP	31	96	1
TAP	31	144	1
STR	31	288	3
SUR	31	288	3	96	192	4
TAP	31	336	3
TAP	32	288	5
HLD	32	336	5	528
TAP	33	96	4
TAP	33	144	4
TAP	33	288	6
TAP	33	336	6
TAP	34	96	4
HLD	34	144	4	528
TAP	34	288	5
TAP	34	336	5
TAP	35	96	3
TAP	35	144	3
TAP	35	288	5
TAP	35	336	4
TAP	35	336	6
TAP	36	48	1
TAP	36	48	3
TAP	36	144	3
TAP	36	144	4
TAP	36	240	1
TAP	36	240	6
BRK	36	288	1
BRK	36	288	6
STR	37	0	2
SCR	37	0	2	96	48	5
XTP	37	0	7
TAP	37	192	6
TAP	37	288	5
TAP	37	288	7
TAP	38	0	1
TAP	38	96	0
TAP	38	96	2
XTP	38	192	3
XTP	38	192	4
TAP	38	288	0
TAP	38	336	0
XTP	39	0	1
TAP	39	0	3
TAP	39	96	7
TAP	39	144	7
TAP	39	192	4
XTP	39	192	6
TAP	39	288	1
TAP	39	288	3
TAP	39	336	1
TAP	39	336	3
TAP	40	48	3
TAP	40	48	5
TAP	40	144	1
TAP	40	144	3
TAP	40	240	3
XTP	40	240	7
TAP	40	288	3
XTP	40	288	7
XTP	41	0	0
STR	41	0	5
SCL	41	0	5	96	48	2
TAP	41	192	1
TAP	41	288	0
TAP	41	288	2
TAP	42	0	6
STR	42	96	5
SCL	42	96	5	96	48	2
TAP	42	96	7
TAP	42	288	0
TAP	42	336	0
TAP	43	48	1
TAP	43	48	3
TAP	43	96	1
TAP	43	96	3
TAP	43	192	4
TAP	43	192	6
TAP	43	240	4
TAP	43	240	6
TAP	43	336	2
TAP	43	336	5
TAP	44	0	2
TAP	44	0	5
TAP	44	96	1
TAP	44	96	6
STR	44	192	0
SI_	44	192	0	96	48	4
TAP	44	192	7
XTP	45	0	2
XTP	45	0	6
XTP	45	48	2
XTP	45	48	6
XTP	45	96	0
TAP	45	192	1
TAP	45	288	2
TAP	45	288	3
TAP	46	0	4
TAP	46	96	2
TAP	46	96	3
TAP	46	192	1
TAP	46	288	2
TAP	46	288	3
TAP	47	0	1
HLD	47	0	4	96
TAP	47	96	3
HLD	47	192	3	96
TAP	47	192	6
TAP	47	288	4
TAP	48	0	1
TAP	48	0	4
TAP	48	96	3
TAP	48	96	4
TAP	48	192	3
TAP	48	192	6
STR	48	288	3
SI_	48	288	3	96	48	0
TAP	48	288	4
BRK	49	96	7
TAP	49	192	5
TAP	49	288	2
TAP	49	288	4
TAP	50	0	3
TAP	50	96	2
TAP	50	96	5
TAP	50	192	4
TAP	50	288	2
TAP	50	288	3
TAP	51	0	1
STR	51	0	5
SI_	51	0	5	96	48	2
STR	51	192	1
SI_	51	192	1	96	48	6
STR	52	0	5
SI_	52	0	5	96	48	2
STR	52	192	1
SI_	52	192	1	96	48	6
HLD	53	0	5	672
HLD	54	0	4	288
TAP	55	0	3
TAP	55	0	4
HLD	55	96	3	48
TAP	55	192	3
HLD	55	288	3	48
TAP	56	0	3
TAP	56	0	4
HLD	56	96	3	48
TAP	56	192	3
TAP	56	288	2
TAP	56	288	3
TAP	57	0	3
TAP	57	0	4
HLD	57	96	4	48
TAP	57	192	4
HLD	57	288	4	48
TAP	58	0	3
TAP	58	0	4
HLD	58	96	4	48
TAP	58	192	4
HLD	58	288	4	48
TAP	59	0	3
TAP	59	0	4
HLD	59	96	3	48
TAP	59	192	3
HLD	59	288	3	48
TAP	60	0	3
TAP	60	0	4
HLD	60	96	4	48
TAP	60	192	4
XTP	60	240	3
XTP	60	288	2
XTP	60	288	4
TAP	61	0	3
TAP	61	0	5
TAP	61	48	3
TAP	61	48	5
TAP	61	192	2
TAP	61	192	4
TAP	61	240	2
TAP	61	240	4
TAP	62	0	4
TAP	62	0	5
TAP	62	48	4
TAP	62	48	5
TAP	62	192	2
TAP	62	192	3
TAP	62	240	2
TAP	62	240	3
TAP	63	0	4
TAP	63	0	6
TAP	63	48	4
TAP	63	48	6
TAP	63	192	1
TAP	63	192	3
TAP	63	240	1
TAP	63	240	3
TAP	64	0	3
TAP	64	0	4
TAP	64	48	3
TAP	64	48	4
TAP	64	192	3
TAP	64	240	4
TAP	64	288	3
TAP	64	288	5
HLD	65	0	2	48
HLD	65	96	3	48
HLD	65	192	4	48
HLD	65	288	5	48
HLD	66	0	4	48
HLD	66	0	6	48
HLD	66	96	3	48
HLD	66	96	5	48
HLD	66	192	2	48
HLD	66	192	4	48
HLD	66	288	1	48
HLD	66	288	3	48
HLD	67	0	0	48
HLD	67	0	4	48
HLD	67	96	1	48
HLD	67	96	5	48
HLD	67	192	2	48
HLD	67	192	6	48
TAP	67	288	3
TAP	67	288	7
TAP	67	336	3
TAP	67	336	7
TAP	68	48	4
TAP	68	48	6
TAP	68	144	1
TAP	68	144	3
TAP	68	240	0
TAP	68	240	4
HLD	68	288	0	672
HLD	68	288	4	672
BRK	71	0	2
BRK	71	0	6
TAP	71	96	1
TAP	71	96	3
TAP	71	192	2
TAP	71	192	6
TAP	71	288	1
TAP	71	288	3
TAP	72	0	2
TAP	72	0	6
TAP	72	96	1
TAP	72	96	3
TAP	72	144	0
TAP	72	192	6
TAP	72	192	7
TAP	72	288	2
TAP	72	288	3
TAP	72	336	2
TAP	72	336	3
STR	73	0	1
SI_	73	0	1	96	48	5
TAP	73	0	4
HLD	73	192	6	96
TAP	73	288	7
TAP	73	336	6
TAP	73	336	7
TAP	74	48	3
TAP	74	48	4
TAP	74	144	0
TAP	74	144	1
TAP	74	240	3
XTP	74	240	7
TAP	74	288	3
XTP	74	288	7
XTP	75	0	1
XTP	75	0	5
TAP	75	96	4
TAP	75	96	6
TAP	75	192	1
TAP	75	192	5
TAP	75	288	4
TAP	75	288	6
TAP	76	0	1
TAP	76	0	5
TAP	76	96	4
TAP	76	96	6
TAP	76	144	7
TAP	76	192	0
TAP	76	192	1
TAP	76	288	4
TAP	76	288	5
TAP	76	336	3
TAP	76	336	6
TAP	77	48	2
TAP	77	48	3
TAP	77	96	1
TAP	77	96	4
TAP	77	192	0
TAP	77	192	7
TAP	77	240	1
TAP	77	240	6
TAP	77	336	3
TAP	77	336	4
XHO	78	0	3	48
XHO	78	0	4	48
XHO	78	96	2	48
XHO	78	96	5	48
XHO	78	192	1	48
XHO	78	192	6	48
XTP	78	288	0
XTP	78	288	7
BST	79	0	3
SI_	79	0	3	96	48	0
BST	79	0	4
SI_	79	0	4	96	48	7
XTP	79	192	1
XTP	79	192	6
TAP	79	288	4
TAP	79	288	5
TAP	80	0	1
TAP	80	0	5
TAP	80	96	2
TAP	80	96	3
TAP	80	192	2
TAP	80	192	6
TAP	80	288	4
TAP	80	288	5
TAP	80	336	4
TAP	80	336	5
TAP	81	0	3
STR	81	0	6
SI_	81	0	6	96	48	2
HLD	81	192	1	96
TAP	81	288	0
TAP	81	336	0
TAP	81	336	1
TAP	82	48	3
TAP	82	48	4
TAP	82	144	6
TAP	82	144	7
XTP	82	240	0
TAP	82	240	4
XTP	82	288	0
TAP	82	288	4
XTP	83	0	2
XTP	83	0	6
TAP	83	96	1
TAP	83	96	3
TAP	83	192	1
TAP	83	192	5
TAP	83	288	4
TAP	83	288	6
TAP	84	0	2
TAP	84	0	6
TAP	84	96	1
TAP	84	96	3
TAP	84	144	0
TAP	84	192	6
TAP	84	192	7
TAP	84	288	3
TAP	84	288	4
TAP	84	336	2
TAP	84	336	5
TAP	85	48	0
TAP	85	48	1
TAP	85	96	2
TAP	85	96	7
TAP	85	192	6
TAP	85	192	7
TAP	85	240	0
TAP	85	240	5
XTP	85	336	7
XTP	86	0	7
XTP	86	48	7
XTP	86	96	7
XST	86	144	7
SI_	86	144	7	96	72	3
XTP	86	192	7
TTP	87	0	0	B	0	M1
TTP	87	0	0	C	1	M1
TTP	87	0	1	B	0	M1
TTP	87	0	4	B	0	M1
TTP	87	0	5	B	0	M1

T_REC_TAP	382
T_REC_BRK	8
T_REC_XTP	39
T_REC_HLD	58
T_REC_XHO	6
T_REC_STR	16
T_REC_BST	2
T_REC_XST	1
T_REC_TTP	5
T_REC_THO	0
T_REC_SLD	19
T_REC_ALL	536
T_NUM_TAP	443
T_NUM_BRK	10
T_NUM_HLD	64
T_NUM_SLD	19
T_NUM_ALL	536
T_JUDGE_TAP	453
T_JUDGE_HLD	190
T_JUDGE_SLD	19
T_JUDGE_ALL	662
TTM_EACHPAIRS	178
TTM_SCR_TAP	221500
TTM_SCR_BRK	26000
TTM_SCR_HLD	64000
TTM_SCR_SLD	28500
TTM_SCR_ALL	340000
TTM_SCR_S	328850
TTM_SCR_SS	339000
TTM_RAT_ACV	10029

