VERSION	0.00.00	1.03.00
FES_MODE	0
BPM_DEF	147.000	147.000	147.000	147.000
MET_DEF	4	4
RESOLUTION	384
CLK_DEF	384
COMPATIBLE_CODE	MA2

BPM	0	0	147.000
MET	0	0	4	4

HLD	1	0	5	384
HLD	2	0	4	384
HLD	3	0	3	384
XTP	4	0	2
HLD	5	0	1	384
HLD	6	0	0	384
HLD	7	0	7	384
TAP	8	0	6
TAP	9	0	1
TAP	9	96	1
TAP	9	192	0
TAP	9	192	1
TAP	10	0	6
TAP	10	96	6
TAP	10	192	6
TAP	10	192	7
TAP	11	0	1
TAP	11	96	1
TAP	11	192	0
TAP	11	192	1
TAP	12	0	7
TAP	12	96	7
TAP	12	192	0
TAP	12	192	6
TAP	13	0	5
TAP	13	96	5
TAP	13	192	4
TAP	13	192	5
TAP	14	0	2
TAP	14	96	2
TAP	14	192	2
TAP	14	192	3
TAP	15	0	5
TAP	15	96	5
TAP	15	192	4
TAP	15	192	5
TAP	16	0	3
TAP	16	96	3
TAP	16	192	2
TAP	16	192	4
TAP	17	0	1
TAP	17	96	1
TAP	17	192	0
TAP	17	288	0
TAP	18	0	7
TAP	18	96	7
TAP	18	192	0
TAP	18	192	6
TAP	19	0	5
TAP	19	96	5
TAP	19	192	4
TAP	19	288	4
XTP	20	0	3
XTP	20	0	4
XTP	20	96	3
XTP	20	96	4
XTP	20	192	2
XTP	20	192	5
HLD	21	0	1	192
TAP	21	192	0
HLD	22	0	6	192
TAP	22	192	7
HLD	23	0	1	192
TAP	23	192	0
HLD	24	0	6	96
HLD	24	0	7	96
TAP	24	192	6
TAP	24	192	7
HLD	25	0	5	192
TAP	25	192	4
HLD	26	0	2	192
TAP	26	192	3
HLD	27	0	5	192
TAP	27	192	4
HLD	28	0	3	96
HLD	28	0	4	96
TAP	28	192	3
TAP	28	192	4
TTP	29	0	5	E	0	L1
TTP	29	192	6	E	0	L1
TTP	30	0	7	E	0	L1
TTP	30	192	0	E	0	L1
TTP	31	0	1	E	0	L1
TTP	31	192	2	E	0	L1
TTP	32	0	3	E	0	L1
TTP	32	192	4	E	0	L1
TTP	33	0	5	B	0	L1
TTP	33	0	5	E	0	L1
TTP	33	192	6	B	0	L1
TTP	33	192	7	B	0	L1
TTP	34	0	0	B	0	L1
TTP	34	0	1	B	0	L1
TTP	34	192	2	B	0	L1
TTP	34	192	3	E	0	L1
XTP	35	0	4
XTP	35	192	2
XTP	35	192	5
XTP	35	336	3
XTP	35	336	4
XTP	36	48	3
XTP	36	48	4
XTP	36	144	3
XTP	36	144	4
BRK	37	0	5
TAP	37	96	5
TAP	37	192	6
TAP	37	192	7
TAP	37	288	6
TAP	37	288	7
TAP	38	0	1
TAP	38	96	1
TAP	38	192	0
TAP	38	192	1
TAP	38	288	0
TAP	38	288	1
TAP	39	0	2
TAP	39	96	2
TAP	39	192	3
TAP	39	288	3
TAP	40	0	4
TAP	40	96	4
TAP	40	192	3
TAP	40	192	5
TAP	41	0	2
TAP	41	96	2
TAP	41	192	2
TAP	41	192	3
TAP	41	288	2
TAP	41	288	3
TAP	42	0	5
TAP	42	96	5
TAP	42	192	4
TAP	42	192	5
TAP	42	288	4
TAP	42	288	5
TAP	43	0	6
TAP	43	96	6
TAP	43	192	7
TAP	43	288	7
TAP	44	0	0
TAP	44	0	7
TAP	44	96	1
TAP	44	96	6
TAP	44	192	2
TAP	44	192	5
STR	45	0	6
SCL	45	0	6	96	144	3
STR	46	0	2
SCL	46	0	2	96	144	7
STR	47	0	6
SUL	47	0	6	96	144	2
TAP	48	0	1
TAP	48	96	1
TAP	48	192	2
TAP	48	192	3
STR	49	0	4
SCR	49	0	4	96	144	7
STR	50	0	0
SCR	50	0	0	96	144	3
STR	51	0	4
SUR	51	0	4	96	144	0
TAP	52	0	1
TAP	52	96	1
TAP	52	192	0
TAP	52	192	7
STR	53	0	1
SI_	53	0	1	96	144	4
STR	54	0	5
SI_	54	0	5	96	144	0
TAP	55	0	1
TAP	55	96	1
TAP	55	192	0
TAP	55	192	1
TAP	56	0	6
TAP	56	96	6
TAP	56	192	6
TAP	56	192	7
STR	57	0	5
SI_	57	0	5	96	144	0
STR	58	0	1
SI_	58	0	1	96	144	4
TAP	59	0	5
TAP	59	96	5
TAP	59	192	4
TAP	59	192	5
TAP	60	0	2
TAP	60	96	2
TAP	60	192	2
TAP	60	192	3
HLD	61	0	1	192
HLD	61	192	0	192
HLD	62	0	7	192
TAP	62	192	6
HLD	63	0	5	192
HLD	63	192	4	192
HLD	64	0	3	192
TAP	64	192	2
TAP	65	0	1
TAP	65	96	1
TAP	65	192	0
TAP	65	288	0
TAP	66	0	7
TAP	66	96	7
TAP	66	192	6
TAP	66	288	6
TAP	67	0	5
TAP	67	96	5
TAP	67	192	4
TAP	67	288	4
XTP	68	0	3
XTP	68	0	4
XTP	68	96	3
XTP	68	96	4
XTP	68	192	2
XTP	68	192	5
STR	69	0	3
SXR	69	0	3	96	480	0
STR	69	0	4
SXL	69	0	4	96	480	7
BRK	71	0	1
TAP	71	96	0
TAP	71	96	1
TAP	71	192	1
TAP	71	288	0
TAP	71	288	1
TAP	72	0	6
TAP	72	96	6
TAP	72	96	7
TAP	72	192	6
TAP	72	288	6
TAP	72	288	7
TAP	73	0	5
TAP	73	96	5
TAP	73	192	4
TAP	73	288	4
TAP	74	0	3
TAP	74	96	3
TAP	74	192	2
TAP	74	192	4
TAP	75	0	5
TAP	75	96	4
TAP	75	96	5
TAP	75	192	5
TAP	75	288	4
TAP	75	288	5
TAP	76	0	2
TAP	76	96	2
TAP	76	96	3
TAP	76	192	2
TAP	76	288	2
TAP	76	288	3
TAP	77	0	1
TAP	77	96	1
TAP	77	192	0
TAP	77	288	0
TAP	78	0	0
TAP	78	0	7
TAP	78	96	1
TAP	78	96	6
TAP	78	192	2
TAP	78	192	5
TAP	79	0	6
BRK	79	96	6
BRK	79	96	7
TAP	79	192	6
TAP	79	288	6
TAP	79	288	7
TAP	80	0	1
TAP	80	96	0
TAP	80	96	1
TAP	80	192	1
TAP	80	288	0
TAP	80	288	1
TAP	81	0	2
TAP	81	96	2
TAP	81	192	3
TAP	81	288	3
TAP	82	0	4
TAP	82	96	4
TAP	82	192	3
TAP	82	192	5
TAP	83	0	2
TAP	83	96	2
TAP	83	96	3
TAP	83	192	2
TAP	83	288	2
TAP	83	288	3
TAP	84	0	5
TAP	84	96	4
TAP	84	96	5
TAP	84	192	5
TAP	84	288	4
TAP	84	288	5
TAP	85	0	6
TAP	85	96	6
TAP	85	192	7
TAP	85	288	7
TAP	86	0	0
TAP	86	0	7
TAP	86	96	1
TAP	86	96	6
TAP	86	192	2
TAP	86	192	5
BST	87	0	3
SXR	87	0	3	96	480	0
BST	87	0	4
SXL	87	0	4	96	480	7

T_REC_TAP	215
T_REC_BRK	4
T_REC_XTP	22
T_REC_HLD	22
T_REC_XHO	0
T_REC_STR	12
T_REC_BST	2
T_REC_XST	0
T_REC_TTP	16
T_REC_THO	0
T_REC_SLD	14
T_REC_ALL	307
T_NUM_TAP	265
T_NUM_BRK	6
T_NUM_HLD	22
T_NUM_SLD	14
T_NUM_ALL	307
T_JUDGE_TAP	271
T_JUDGE_HLD	104
T_JUDGE_SLD	14
T_JUDGE_ALL	389
TTM_EACHPAIRS	67
TTM_SCR_TAP	132500
TTM_SCR_BRK	15600
TTM_SCR_HLD	22000
TTM_SCR_SLD	21000
TTM_SCR_ALL	191100
TTM_SCR_S	184800
TTM_SCR_SS	190500
TTM_RAT_ACV	10031

