VERSION	0.00.00	1.03.00
FES_MODE	0
BPM_DEF	147.000	147.000	147.000	147.000
MET_DEF	4	4
RESOLUTION	384
CLK_DEF	384
COMPATIBLE_CODE	MA2

BPM	0	0	147.000
MET	0	0	4	4

XTP	1	0	0
XTP	3	0	7
HLD	5	0	0	384
HLD	7	0	7	384
BRK	9	0	0
TAP	9	192	0
TAP	10	0	0
TAP	11	0	1
TAP	11	192	1
TAP	12	0	1
TAP	13	0	2
TAP	13	192	2
TAP	14	0	2
TAP	15	0	3
TAP	15	192	3
TAP	16	0	3
TAP	16	0	4
TAP	17	0	5
TAP	17	192	5
TAP	18	0	5
TAP	19	0	6
TAP	19	192	6
XTP	20	0	6
TAP	21	0	7
TAP	22	0	6
TAP	23	0	5
TAP	24	0	4
TAP	25	0	3
TAP	26	0	2
TAP	27	0	1
XTP	28	0	0
XTP	28	0	7
STR	29	0	0
SI_	29	0	0	96	288	3
STR	31	0	7
SI_	31	0	7	96	288	4
STR	33	0	0
SI_	33	0	0	96	288	4
STR	35	0	7
SI_	35	0	7	96	288	3
BRK	37	0	1
TAP	37	192	1
TAP	38	0	0
TAP	38	0	1
TAP	39	0	2
TAP	39	192	2
TAP	40	0	2
TAP	40	0	3
TAP	41	0	5
TAP	41	192	5
TAP	42	0	4
TAP	42	0	5
TAP	43	0	6
TAP	43	192	6
TAP	44	0	6
TAP	44	0	7
TTP	45	0	6	B	0	L1
TTP	45	0	7	B	0	L1
TTP	46	0	4	B	0	L1
TTP	46	0	5	B	0	L1
TTP	47	0	2	B	0	L1
TTP	47	0	3	B	0	L1
TTP	48	0	0	B	0	L1
TTP	48	0	1	B	0	L1
TAP	49	0	7
TAP	49	192	7
TAP	50	0	6
TAP	50	0	7
TAP	51	0	0
TAP	51	192	0
TAP	52	0	0
TAP	52	0	1
HLD	53	0	2	384
HLD	55	0	3	384
HLD	57	0	4	384
HLD	59	0	5	384
HLD	61	0	6	384
HLD	61	0	7	384
HLD	63	0	0	384
HLD	63	0	1	384
HLD	65	0	0	384
HLD	65	0	7	384
HLD	67	0	1	384
HLD	67	0	6	384
TTP	69	0	0	C	0	L1
BRK	71	0	0
TAP	71	96	0
TAP	71	192	0
TAP	72	0	1
TAP	72	192	1
TAP	73	0	2
TAP	73	96	2
TAP	73	192	2
TAP	74	0	3
TAP	74	0	4
TAP	74	192	3
TAP	74	192	4
TAP	75	0	4
TAP	75	96	4
TAP	75	192	4
TAP	76	0	5
TAP	76	192	5
TAP	77	0	6
TAP	77	96	6
TAP	77	192	6
TAP	78	0	0
TAP	78	0	7
TAP	78	192	0
TAP	78	192	7
TAP	79	0	6
TAP	79	96	6
TAP	79	192	6
TAP	80	0	5
TAP	80	96	5
TAP	80	192	5
TAP	81	0	4
TAP	81	96	4
TAP	81	192	4
TAP	82	0	3
TAP	82	0	4
TAP	82	192	3
TAP	82	192	4
TAP	83	0	2
TAP	83	96	2
TAP	83	192	2
TAP	84	0	1
TAP	84	96	1
TAP	84	192	1
TAP	85	0	0
TAP	85	96	0
TAP	85	192	0
TAP	86	0	0
TAP	86	0	7
TAP	86	96	0
TAP	86	96	7
HLD	86	192	0	192
HLD	86	192	7	192

T_REC_TAP	96
T_REC_BRK	3
T_REC_XTP	5
T_REC_HLD	16
T_REC_XHO	0
T_REC_STR	4
T_REC_BST	0
T_REC_XST	0
T_REC_TTP	9
T_REC_THO	0
T_REC_SLD	4
T_REC_ALL	137
T_NUM_TAP	114
T_NUM_BRK	3
T_NUM_HLD	16
T_NUM_SLD	4
T_NUM_ALL	137
T_JUDGE_TAP	117
T_JUDGE_HLD	120
T_JUDGE_SLD	4
T_JUDGE_ALL	241
TTM_EACHPAIRS	21
TTM_SCR_TAP	57000
TTM_SCR_BRK	7800
TTM_SCR_HLD	16000
TTM_SCR_SLD	6000
TTM_SCR_ALL	86800
TTM_SCR_S	83950
TTM_SCR_SS	86500
TTM_RAT_ACV	10034

