VERSION	0.00.00	1.03.00
FES_MODE	0
BPM_DEF	140.000	140.000	140.000	140.000
MET_DEF	4	4
RESOLUTION	384
CLK_DEF	384
COMPATIBLE_CODE	MA2

BPM	0	0	140.000
MET	0	0	4	4

TAP	1	0	3
TAP	1	0	4
TAP	1	96	3
TAP	1	96	4
TAP	1	144	3
TAP	1	144	4
TAP	1	192	5
TAP	1	216	4
TAP	1	264	2
TAP	1	288	3
TAP	1	336	2
TAP	1	336	4
TAP	2	0	3
TAP	2	0	5
TAP	2	48	6
TAP	2	72	4
TAP	2	96	6
TAP	2	120	4
TAP	2	144	6
TAP	2	168	3
TAP	2	240	2
TAP	2	240	4
TAP	2	288	1
TAP	2	312	3
TAP	2	336	1
TAP	2	360	4
TAP	3	48	2
TAP	3	48	4
TAP	3	96	5
TAP	3	120	3
TAP	3	144	5
TAP	3	168	3
TAP	3	240	2
TAP	3	240	6
TAP	3	288	7
TAP	3	336	0
TAP	4	0	2
TAP	4	0	4
TAP	4	48	1
TAP	4	72	3
TAP	4	96	1
TAP	4	120	3
TAP	4	144	1
TAP	4	168	4
TAP	4	240	3
TAP	4	240	5
TAP	4	288	6
TAP	4	312	4
TAP	4	336	6
TAP	4	360	3
TAP	5	48	3
TAP	5	48	5
TAP	5	96	2
TAP	5	120	4
TAP	5	144	2
TAP	5	168	4
TAP	5	240	1
TAP	5	240	5
TAP	5	288	0
TAP	5	336	7
TAP	6	0	3
TAP	6	0	5
TAP	6	48	6
TAP	6	72	4
TAP	6	96	6
TAP	6	120	4
TAP	6	144	6
TAP	6	168	4
TAP	6	240	0
TAP	6	240	7
TAP	6	288	1
TAP	6	312	3
TAP	6	336	1
TAP	6	360	3
TAP	7	48	0
TAP	7	48	7
TAP	7	96	5
TAP	7	120	3
TAP	7	144	5
TAP	7	168	3
TAP	7	240	2
TAP	7	240	6
TAP	7	288	7
TAP	7	336	0
TAP	8	0	2
TAP	8	0	4
TAP	8	48	1
TAP	8	72	3
TAP	8	96	1
TAP	8	120	3
TAP	8	144	1
TAP	8	168	3
TAP	8	240	0
TAP	8	240	7
TAP	8	288	1
STR	8	288	6
SI_	8	288	6	96	48	2
STR	9	0	3
SI_	9	0	3	96	48	0
TAP	9	0	6
TAP	9	96	3
STR	9	96	4
SI_	9	96	4	96	48	7
TAP	9	192	3
TAP	9	192	4
TAP	9	288	2
TAP	9	288	6
TAP	10	0	1
TAP	10	48	0
STR	10	96	7
SI_	10	96	7	96	48	4
TAP	10	144	4
TAP	10	192	4
TAP	10	240	3
STR	10	288	2
SCR	10	288	2	96	48	5
TAP	10	336	2
STR	11	0	6
SCR	11	0	6	96	48	1
TAP	11	48	6
TAP	11	96	4
TAP	11	144	4
TAP	11	192	3
TAP	11	240	3
STR	11	288	2
SI_	11	288	2	96	48	6
TAP	11	336	2
STR	12	0	5
SI_	12	0	5	96	48	1
TAP	12	48	5
STR	12	96	0
SI_	12	96	0	96	48	4
TAP	12	144	0
TAP	12	192	3
TAP	12	240	3
TAP	12	288	4
TAP	12	336	5
TAP	13	0	3
TAP	13	0	6
TAP	13	48	2
TAP	13	96	1
TAP	13	96	5
TAP	13	144	6
TAP	13	192	3
TAP	13	192	7
TAP	13	240	2
TAP	13	288	1
TAP	13	288	4
TAP	14	0	6
TAP	14	48	7
TAP	14	96	0
TAP	14	144	1
TTP	14	192	2	B	0	M1
TTP	14	192	2	E	0	M1
TTP	14	192	3	E	0	M1
TAP	14	192	4
TAP	14	240	5
STR	14	288	6
SCR	14	288	6	96	48	1
TAP	14	336	6
STR	15	0	2
SCR	15	0	2	96	48	5
TAP	15	48	2
BRK	15	96	7
BRK	15	144	7
TAP	15	192	3
TAP	15	240	3
STR	15	288	5
SI_	15	288	5	96	48	1
TAP	15	336	5
STR	16	0	2
SI_	16	0	2	96	48	6
TAP	16	48	2
STR	16	96	7
SI_	16	96	7	96	48	4
TAP	16	144	7
STR	16	192	0
SI_	16	192	0	96	48	3
TAP	16	240	0
TAP	16	288	4
TAP	16	336	5
TAP	17	0	2
TAP	17	0	6
TAP	17	48	1
TAP	17	96	0
TAP	17	96	3
TAP	17	144	4
STR	17	192	1
SI_	17	192	1	96	48	4
STR	17	192	5
SI_	17	192	5	96	48	3
TAP	17	240	2
TAP	17	288	1
TAP	17	288	5
HLD	18	0	1	48
TAP	18	0	5
HLD	18	48	7	48
HLD	18	96	1	48
HLD	18	144	7	48
HLD	18	192	1	48
HLD	18	240	7	48
THO	18	288	0	48	C	0	M1
TTP	18	288	2	B	0	M1
TTP	18	288	3	B	0	M1
TTP	18	336	4	B	0	M1
TTP	18	336	5	B	0	M1
TTP	18	336	5	E	0	M1
HLD	19	0	6	48
HLD	19	48	0	48
HLD	19	96	6	48
HLD	19	144	0	48
HLD	19	192	6	48
HLD	19	240	0	48
THO	19	288	0	48	C	0	M1
TTP	19	288	4	B	0	M1
TTP	19	288	5	B	0	M1
TTP	19	336	2	B	0	M1
TTP	19	336	3	B	0	M1
TTP	19	336	3	E	0	M1
HLD	20	0	1	48
HLD	20	48	6	48
HLD	20	96	1	48
HLD	20	144	6	48
HLD	20	192	0	48
HLD	20	240	7	48
TAP	20	288	0
TAP	20	336	1
TAP	20	336	6
TAP	21	0	0
TAP	21	24	7
TAP	21	48	0
TAP	21	96	1
TAP	21	120	3
TAP	21	168	3
TAP	21	168	4
TAP	21	216	4
TAP	21	216	6
TAP	21	264	7
TAP	21	288	0
TAP	21	336	1
TAP	21	336	6
TAP	22	0	2
TAP	22	0	4
STR	22	48	1
SCR	22	48	1	96	48	4
TAP	22	72	3
TAP	22	96	0
TAP	22	144	5
TAP	22	168	5
TAP	22	216	7
TAP	22	240	7
TAP	22	288	0
STR	22	288	6
SI_	22	288	6	96	48	2
TAP	22	336	3
TAP	22	360	3
TAP	23	24	1
TAP	23	48	1
TAP	23	96	0
TAP	23	144	1
STR	23	168	1
SI_	23	168	1	96	48	5
TAP	23	216	4
TAP	23	240	4
XTP	23	288	7
XTP	23	336	6
TAP	24	0	0
TAP	24	48	5
TAP	24	72	4
STR	24	96	6
SCR	24	96	6	96	48	1
TAP	24	144	3
TAP	24	168	3
TAP	24	216	4
TAP	24	240	4
TAP	24	288	3
TAP	24	288	5
STR	25	0	2
SI_	25	0	2	96	48	6
TAP	25	48	4
TAP	25	72	4
TAP	25	120	5
TAP	25	144	5
STR	25	192	7
SI_	25	192	7	96	48	2
SI_	25	192	7	96	48	4
TAP	25	240	0
TAP	25	240	6
TAP	26	0	3
TAP	26	0	5
STR	26	48	6
SCL	26	48	6	96	48	3
TAP	26	72	4
TAP	26	96	7
TAP	26	144	2
TAP	26	168	2
TAP	26	216	0
TAP	26	240	0
STR	26	288	1
SI_	26	288	1	96	48	5
TAP	26	288	7
TAP	26	336	4
TAP	26	360	4
TAP	27	24	6
TAP	27	48	6
TAP	27	96	7
TAP	27	144	6
STR	27	168	6
SI_	27	168	6	96	48	2
TAP	27	216	3
TAP	27	240	3
TAP	27	288	0
TAP	27	336	1
TAP	28	0	7
TAP	28	48	2
TAP	28	72	3
STR	28	96	1
SCL	28	96	1	96	48	6
TAP	28	144	4
TAP	28	168	4
TAP	28	216	3
TAP	28	240	3
TAP	28	288	2
STR	28	288	4
SXL	28	288	4	96	96	4
SXR	28	288	4	96	96	4
XTP	29	168	0
XTP	29	192	0
XTP	29	240	1
XTP	29	240	7
XTP	29	288	2
XTP	29	288	6
XST	29	336	5
SCR	29	336	5	96	48	0
TAP	29	360	4
TAP	30	0	6
TAP	30	48	3
TAP	30	96	2
STR	30	144	3
SCL	30	144	3	96	48	0
TAP	30	192	4
TAP	30	240	5
TAP	30	288	6
STR	30	336	7
SCL	30	336	7	96	48	4
TAP	31	0	0
TAP	31	48	1
STR	31	96	2
SCL	31	96	2	96	96	5
TAP	31	144	4
STR	31	192	5
SCR	31	192	5	96	96	2
HLD	32	0	4	384
TAP	32	96	3
TAP	32	192	3
TAP	32	288	3
HLD	33	0	3	288
TAP	33	96	4
TAP	33	192	4
TAP	33	288	4
HLD	34	0	4	384
TAP	34	96	2
TAP	34	192	3
TAP	34	288	3
HLD	35	0	3	288
TAP	35	96	5
TAP	35	192	4
TAP	35	288	4
TAP	36	0	4
HLD	36	48	4	48
TAP	36	96	5
HLD	36	144	5	48
TAP	36	192	6
HLD	36	240	6	48
TAP	36	288	7
HLD	36	336	7	48
TAP	37	0	3
HLD	37	48	3	48
TAP	37	96	2
HLD	37	144	2	48
TAP	37	192	1
HLD	37	240	1	48
TAP	37	288	0
HLD	37	336	0	48
TAP	38	0	4
HLD	38	48	4	48
TAP	38	96	5
HLD	38	144	5	48
TAP	38	192	6
HLD	38	240	6	48
TAP	38	288	7
HLD	38	336	7	48
TAP	39	0	3
HLD	39	48	3	48
TAP	39	96	2
HLD	39	144	2	48
TAP	39	192	1
HLD	39	240	1	48
TAP	39	288	0
TAP	39	336	0
HLD	40	0	4	48
HLD	40	48	5	48
HLD	40	96	6	48
HLD	40	144	7	48
HLD	40	192	3	48
HLD	40	240	2	48
HLD	40	288	1	48
HLD	40	336	0	48
STR	41	0	4
SI_	41	0	4	96	48	1
SI_	41	0	4	96	48	7
XTP	41	96	4
BRK	41	192	2
BRK	41	192	6
TAP	42	0	3
TAP	42	0	5
STR	42	48	6
SCL	42	48	6	96	48	3
TAP	42	72	4
TAP	42	96	7
TAP	42	144	2
TAP	42	168	2
TAP	42	216	1
TAP	42	240	1
STR	42	288	0
SXL	42	288	0	96	96	0
TAP	42	288	7
TAP	42	336	4
TAP	42	360	4
TAP	43	24	6
TAP	43	48	6
TAP	43	96	7
TAP	43	144	6
STR	43	168	6
SI_	43	168	6	96	48	2
TAP	43	216	3
TAP	43	240	3
XTP	43	288	0
XTP	43	336	1
TAP	44	0	7
TAP	44	48	2
TAP	44	72	3
STR	44	96	1
SCL	44	96	1	96	48	6
TAP	44	144	4
TAP	44	168	4
TAP	44	216	3
TAP	44	240	3
TAP	44	288	2
TAP	44	288	4
STR	45	0	5
SI_	45	0	5	96	48	1
TAP	45	48	3
TAP	45	72	3
TAP	45	120	2
TAP	45	144	2
STR	45	192	0
SI_	45	192	0	96	48	3
SI_	45	192	0	96	48	5
TAP	45	240	1
TAP	45	240	7
TAP	46	0	2
TAP	46	0	4
STR	46	48	1
SCR	46	48	1	96	48	4
TAP	46	72	3
TAP	46	96	0
TAP	46	144	5
TAP	46	168	5
TAP	46	216	7
TAP	46	240	7
TAP	46	288	0
STR	46	288	6
SI_	46	288	6	96	48	2
TAP	46	336	3
TAP	46	360	3
TAP	47	24	1
TAP	47	48	1
TAP	47	96	0
TAP	47	144	1
STR	47	168	1
SI_	47	168	1	96	48	5
TAP	47	216	4
TAP	47	240	4
TAP	47	288	7
TAP	47	336	6
TAP	48	0	0
TAP	48	48	5
TAP	48	72	4
STR	48	96	6
SCR	48	96	6	96	48	1
TAP	48	144	3
TAP	48	168	3
TAP	48	216	4
TAP	48	240	4
TAP	48	288	3
TAP	48	288	5
STR	49	0	2
SI_	49	0	2	96	48	6
TAP	49	48	4
TAP	49	72	4
TAP	49	120	5
TAP	49	144	5
XTP	49	192	7
XTP	49	240	0
XTP	49	240	6
XTP	49	288	1
XTP	49	288	5
XST	49	336	2
SCL	49	336	2	96	48	7
TAP	49	360	3
TAP	50	0	1
TAP	50	48	4
TAP	50	96	5
STR	50	144	4
SCR	50	144	4	96	48	7
TAP	50	192	3
TAP	50	240	2
TAP	50	288	1
STR	50	336	0
SCR	50	336	0	96	48	3
TAP	51	0	7
TAP	51	48	6
STR	51	96	5
SCR	51	96	5	96	96	2
TAP	51	144	3
STR	51	192	2
SCL	51	192	2	96	96	5
STR	52	0	2
SI_	52	0	2	96	48	4
TAP	52	48	1
TAP	52	72	3
STR	52	96	2
SI_	52	96	2	96	48	0
TAP	52	144	5
TAP	52	168	5
TAP	52	216	7
TAP	52	240	7
TAP	52	288	0
STR	52	288	6
SV_	52	288	6	96	48	3
TAP	52	336	2
TAP	52	360	2
TAP	53	24	1
TAP	53	48	1
TAP	53	96	0
TAP	53	144	1
STR	53	168	1
SI_	53	168	1	96	48	5
TAP	53	216	4
TAP	53	240	4
XTP	53	288	7
XTP	53	336	6
TAP	54	0	0
STR	54	0	5
SI_	54	0	5	96	48	1
TAP	54	48	6
TAP	54	72	4
STR	54	96	5
SCR	54	96	5	96	48	7
TAP	54	144	3
TAP	54	168	3
TAP	54	216	2
TAP	54	240	2
STR	54	288	1
SI_	54	288	1	96	48	7
TAP	54	288	3
STR	55	0	1
SI_	55	0	1	96	48	4
TAP	55	48	4
TAP	55	72	4
TAP	55	120	6
TAP	55	144	6
STR	55	192	7
SI_	55	192	7	96	48	2
SI_	55	192	7	96	48	4
TAP	55	240	0
TAP	55	240	6
STR	56	0	5
SCR	56	0	5	96	48	0
TAP	56	48	6
TAP	56	72	4
STR	56	96	5
SI_	56	96	5	96	48	3
TAP	56	144	2
TAP	56	168	2
TAP	56	216	0
TAP	56	240	0
STR	56	288	1
SI_	56	288	1	96	48	5
TAP	56	288	7
TAP	56	336	4
TAP	56	360	4
TAP	57	24	6
TAP	57	48	6
TAP	57	96	7
TAP	57	144	6
STR	57	168	6
SI_	57	168	6	96	48	2
TAP	57	216	3
TAP	57	240	3
TAP	57	288	0
TAP	57	336	0
STR	58	0	2
SCL	58	0	2	96	48	7
TAP	58	48	1
TAP	58	72	3
STR	58	96	2
SI_	58	96	2	96	48	4
TAP	58	144	5
TAP	58	168	5
TAP	58	216	7
TAP	58	240	7
STR	58	288	4
SI_	58	288	4	96	48	6
TAP	58	288	6
STR	59	0	4
SI_	59	0	4	96	48	0
TAP	59	48	1
TAP	59	72	1
TAP	59	120	2
TAP	59	144	2
XTP	59	192	0
XTP	59	240	1
XTP	59	240	7
XTP	59	288	2
XTP	59	288	6
XST	59	336	5
SLR	59	336	5	96	48	1
TAP	59	360	4
TAP	60	0	6
TAP	60	48	2
TAP	60	96	3
STR	60	144	4
SLL	60	144	4	96	48	0
TAP	60	192	3
TAP	60	240	5
TAP	60	288	6
STR	60	336	7
SLL	60	336	7	96	48	3
TAP	61	0	0
TAP	61	48	1
STR	61	96	2
SCL	61	96	2	96	96	4
TAP	61	144	5
TAP	61	192	6
STR	62	0	0
SCR	62	0	0	96	48	3
STR	62	0	5
SCR	62	0	5	96	48	0
XTP	62	96	0
XTP	62	96	5
STR	62	192	2
SCL	62	192	2	96	48	7
STR	62	192	7
SCL	62	192	7	96	48	4
XTP	62	288	2
XTP	62	288	7
TAP	63	0	0
TAP	63	0	5
TAP	63	48	1
STR	63	96	2
SUL	63	96	2	96	144	0
TAP	63	96	7
TAP	63	120	3
TAP	63	144	4
TAP	63	168	5
HLD	63	192	6	144

T_REC_TAP	419
T_REC_BRK	4
T_REC_XTP	27
T_REC_HLD	46
T_REC_XHO	0
T_REC_STR	73
T_REC_BST	0
T_REC_XST	3
T_REC_TTP	13
T_REC_THO	2
T_REC_SLD	81
T_REC_ALL	668
T_NUM_TAP	535
T_NUM_BRK	4
T_NUM_HLD	48
T_NUM_SLD	81
T_NUM_ALL	668
T_JUDGE_TAP	539
T_JUDGE_HLD	74
T_JUDGE_SLD	81
T_JUDGE_ALL	694
TTM_EACHPAIRS	69
TTM_SCR_TAP	267500
TTM_SCR_BRK	10400
TTM_SCR_HLD	48000
TTM_SCR_SLD	121500
TTM_SCR_ALL	447400
TTM_SCR_S	433600
TTM_SCR_SS	447000
TTM_RAT_ACV	10008

