VERSION	0.00.00	1.03.00
FES_MODE	0
BPM_DEF	140.000	140.000	140.000	140.000
MET_DEF	4	4
RESOLUTION	384
CLK_DEF	384
COMPATIBLE_CODE	MA2

BPM	0	0	140.000
MET	0	0	4	4

HLD	2	0	1	96
HLD	2	96	2	72
HLD	2	168	3	72
TAP	2	240	4
TAP	2	288	4
TTP	3	0	5	B	0	M1
TTP	3	0	6	E	0	M1
TTP	3	96	4	E	0	M1
TTP	3	192	2	B	0	M1
TTP	3	192	2	E	0	M1
TTP	3	288	0	E	0	M1
XHO	4	0	6	96
HLD	4	96	5	72
HLD	4	168	4	72
TAP	4	240	3
TAP	4	288	3
TTP	5	0	2	B	0	M1
TTP	5	0	2	E	0	M1
TTP	5	96	4	E	0	M1
TTP	5	192	5	B	0	M1
TTP	5	192	6	E	0	M1
TTP	5	288	0	E	0	M1
XHO	6	0	1	96
HLD	6	96	2	72
HLD	6	168	3	72
TAP	6	240	4
TAP	6	288	4
TTP	7	0	5	B	0	M1
TTP	7	0	6	B	0	M1
TTP	7	96	1	B	0	M1
TTP	7	96	2	B	0	M1
TTP	7	192	3	B	0	M1
TTP	7	192	4	B	0	M1
TTP	7	288	0	B	0	M1
TTP	7	288	7	B	0	M1
XHO	8	0	6	96
HLD	8	96	5	72
HLD	8	168	4	72
TAP	8	240	3
TAP	8	288	3
TTP	9	0	1	B	0	M1
TTP	9	0	2	B	0	M1
TTP	9	96	5	B	0	M1
TTP	9	96	6	B	0	M1
TTP	9	192	3	B	0	M1
TTP	9	192	4	B	0	M1
BRK	9	288	0
BRK	9	288	7
TAP	10	0	6
TAP	10	48	6
HLD	10	96	4	96
TAP	10	192	5
TAP	10	288	3
TAP	10	288	6
HLD	11	0	1	96
TAP	11	96	3
TAP	11	144	3
TAP	11	192	2
TAP	11	192	4
TAP	11	288	3
TAP	11	288	5
TAP	12	0	2
TAP	12	48	2
TAP	12	96	1
TAP	12	96	3
TAP	12	192	5
TAP	12	240	5
HLD	12	288	4	96
TAP	12	288	6
HLD	13	0	2	96
HLD	13	96	0	96
TAP	13	192	7
TAP	13	240	7
TAP	13	288	0
TAP	13	288	7
TAP	14	0	1
TAP	14	48	1
HLD	14	96	3	96
TAP	14	192	2
TAP	14	288	1
TAP	14	288	4
TAP	15	0	3
HLD	15	0	6	96
TAP	15	96	4
TAP	15	144	4
TAP	15	192	3
TAP	15	192	5
TAP	15	288	2
TAP	15	288	4
TAP	16	0	5
TAP	16	48	5
TAP	16	96	4
TAP	16	96	6
TAP	16	192	2
TAP	16	240	2
TAP	16	288	1
HLD	16	288	3	96
HLD	17	0	5	96
HLD	17	96	7	96
TAP	17	192	0
TAP	17	240	0
BRK	17	288	1
BRK	17	288	6
TAP	18	0	3
STR	18	96	2
SUL	18	96	2	96	96	5
TAP	18	96	4
TTP	18	192	4	E	0	M1
TAP	19	0	4
TAP	19	96	3
STR	19	96	5
SUR	19	96	5	96	96	2
TTP	19	192	4	E	0	M1
TAP	20	0	3
STR	20	96	2
SUL	20	96	2	96	96	5
TAP	20	96	4
TTP	20	192	4	E	0	M1
XHO	21	0	3	24
XHO	21	0	5	24
XHO	21	96	2	24
XHO	21	96	4	24
XTP	21	168	2
XTP	21	168	4
XTP	21	240	1
XTP	21	240	5
XTP	21	288	1
XTP	21	288	5
BRK	22	0	3
BRK	22	0	4
STR	22	96	6
SI_	22	96	6	96	48	4
STR	22	96	7
SI_	22	96	7	96	48	3
XST	22	288	3
SI_	22	288	3	96	48	1
XST	22	288	4
SI_	22	288	4	96	48	0
XHO	23	96	0	48
XHO	23	96	1	48
HLD	23	192	2	48
HLD	23	192	7	48
TAP	23	288	0
TAP	23	288	5
TAP	24	0	2
TAP	24	48	2
HLD	24	96	1	96
TAP	24	96	3
STR	24	192	0
SI_	24	192	0	96	48	3
SI_	24	192	0	96	48	5
TAP	25	0	4
TAP	25	48	4
TAP	25	96	3
HLD	25	96	5	96
STR	25	192	7
SI_	25	192	7	96	48	1
SI_	25	192	7	96	48	5
BRK	26	0	3
BRK	26	0	4
STR	26	96	0
SI_	26	96	0	96	48	4
STR	26	96	1
SI_	26	96	1	96	48	3
XST	26	288	3
SI_	26	288	3	96	48	7
XST	26	288	4
SI_	26	288	4	96	48	6
XHO	27	96	6	48
XHO	27	96	7	48
HLD	27	192	0	48
HLD	27	192	5	48
TAP	27	288	2
TAP	27	288	7
TAP	28	0	5
TAP	28	48	5
TAP	28	96	4
HLD	28	96	6	96
STR	28	192	7
SI_	28	192	7	96	48	2
SI_	28	192	7	96	48	4
TAP	29	0	3
TAP	29	48	3
HLD	29	96	2	96
TAP	29	96	4
STR	29	192	0
SI_	29	192	0	96	48	2
SI_	29	192	0	96	48	6
HLD	30	0	4	48
HLD	30	0	5	48
TAP	30	96	3
TAP	30	96	6
HLD	30	192	2	48
HLD	30	192	3	48
TAP	30	288	1
TAP	30	288	4
HLD	31	0	0	48
HLD	31	0	6	48
XTP	31	96	1
XTP	31	96	7
TTP	31	192	0	C	1	M1
TTP	31	192	2	B	0	M1
TTP	31	192	5	B	0	M1
XST	32	0	1
SCR	32	0	1	96	96	4
STR	32	192	5
SCR	32	192	5	96	96	0
TTP	33	0	1	E	0	M1
TTP	33	96	2	E	0	M1
TTP	33	192	3	E	0	M1
TTP	33	288	4	E	0	M1
XST	34	0	6
SCL	34	0	6	96	96	3
STR	34	192	2
SCL	34	192	2	96	96	7
TTP	35	0	7	E	0	M1
TTP	35	96	6	E	0	M1
TTP	35	192	5	E	0	M1
TTP	35	288	4	E	0	M1
XHO	36	0	1	96
HLD	36	96	2	96
HLD	36	192	3	96
HLD	36	288	4	96
HLD	37	0	2	96
HLD	37	96	3	96
HLD	37	192	4	96
HLD	37	288	5	96
HLD	38	0	3	96
HLD	38	96	4	96
HLD	38	192	5	96
HLD	38	288	6	96
HLD	39	0	4	96
HLD	39	96	5	96
HLD	39	192	6	96
XTP	39	288	7
TAP	40	0	1
TAP	40	48	1
TAP	40	96	0
TAP	40	192	6
TAP	40	240	6
TAP	40	288	7
TAP	41	0	0
TAP	41	0	5
TAP	41	96	2
TAP	41	96	7
TTP	41	192	2	E	0	M1
TTP	41	192	6	E	0	M1
BRK	42	0	3
BRK	42	0	4
STR	42	96	0
SI_	42	96	0	96	48	4
STR	42	96	1
SI_	42	96	1	96	48	3
TAP	42	144	0
TAP	42	144	1
XST	42	288	3
SI_	42	288	3	96	48	7
XST	42	288	4
SI_	42	288	4	96	48	6
TAP	42	336	3
TAP	42	336	4
XTP	43	96	6
XTP	43	96	7
XTP	43	144	6
XTP	43	144	7
HLD	43	192	0	48
HLD	43	192	5	48
TAP	43	288	2
TAP	43	288	7
TAP	44	0	5
TAP	44	48	5
TAP	44	96	4
HLD	44	96	6	96
STR	44	192	7
SI_	44	192	7	96	48	2
SI_	44	192	7	96	48	4
TAP	45	0	3
TAP	45	48	3
HLD	45	96	2	96
TAP	45	96	4
STR	45	192	0
SI_	45	192	0	96	48	2
SI_	45	192	0	96	48	6
BRK	46	0	3
BRK	46	0	4
STR	46	96	6
SI_	46	96	6	96	48	4
STR	46	96	7
SI_	46	96	7	96	48	3
TAP	46	144	6
TAP	46	144	7
XST	46	288	3
SI_	46	288	3	96	48	1
XST	46	288	4
SI_	46	288	4	96	48	0
TAP	46	336	3
TAP	46	336	4
XTP	47	96	0
XTP	47	96	1
XTP	47	144	0
XTP	47	144	1
HLD	47	192	2	48
HLD	47	192	7	48
TAP	47	288	0
TAP	47	288	4
TAP	48	0	2
TAP	48	48	2
HLD	48	96	1	96
TAP	48	96	3
STR	48	192	0
SI_	48	192	0	96	48	3
SI_	48	192	0	96	48	5
TAP	49	0	4
TAP	49	48	4
TAP	49	96	3
HLD	49	96	5	96
STR	49	192	7
SI_	49	192	7	96	48	1
SI_	49	192	7	96	48	5
TAP	50	0	2
TAP	50	48	2
BRK	50	96	1
BRK	50	96	3
TAP	50	192	5
TAP	50	240	5
BRK	50	288	4
BRK	50	288	6
TAP	51	0	1
TAP	51	48	7
BRK	51	96	0
BRK	51	96	6
TAP	51	192	1
TAP	51	192	5
BRK	52	0	0
BRK	52	0	7
STR	52	96	4
SUR	52	96	4	96	48	0
STR	52	96	5
SCR	52	96	5	96	48	7
TAP	52	144	4
TAP	52	144	5
XST	52	288	0
SCR	52	288	0	96	48	2
XST	52	288	7
SUR	52	288	7	96	48	3
TAP	52	336	0
TAP	52	336	7
XTP	53	96	2
XTP	53	96	3
XTP	53	144	2
XTP	53	144	3
HLD	53	192	1	48
HLD	53	192	4	48
TAP	53	288	3
TAP	53	288	6
TAP	54	0	1
TAP	54	48	1
TAP	54	96	0
HLD	54	96	2	96
STR	54	192	3
SI_	54	192	3	96	48	0
SI_	54	192	3	96	48	6
TAP	55	0	7
TAP	55	48	7
TAP	55	96	0
HLD	55	96	6	96
STR	55	192	4
SI_	55	192	4	96	48	2
SI_	55	192	4	96	48	6
BRK	56	0	0
BRK	56	0	7
STR	56	96	2
SCL	56	96	2	96	48	0
STR	56	96	3
SUL	56	96	3	96	48	7
TAP	56	144	2
TAP	56	144	3
XST	56	288	0
SUL	56	288	0	96	48	4
XST	56	288	7
SCL	56	288	7	96	48	5
TAP	56	336	0
TAP	56	336	7
XTP	57	96	4
XTP	57	96	5
XTP	57	144	4
XTP	57	144	5
HLD	57	192	3	48
HLD	57	192	6	48
TAP	57	288	0
TAP	57	288	4
TAP	58	0	6
TAP	58	48	6
HLD	58	96	5	96
TAP	58	96	7
STR	58	192	4
SI_	58	192	4	96	48	1
SI_	58	192	4	96	48	7
TAP	59	0	0
TAP	59	48	0
HLD	59	96	1	96
TAP	59	96	7
STR	59	192	3
SI_	59	192	3	96	48	1
SI_	59	192	3	96	48	5
HLD	60	0	3	48
HLD	60	0	5	48
XTP	60	96	6
XTP	60	96	7
HLD	60	192	2	48
HLD	60	192	4	48
XTP	60	288	0
XTP	60	288	1
HLD	61	0	3	48
HLD	61	0	5	48
XHO	61	96	1	48
XHO	61	96	7	48
XTP	61	192	0
XTP	61	192	6
TAP	62	0	2
TAP	62	48	2
XTP	62	96	1
XTP	62	96	3
TAP	62	192	5
TAP	62	240	5
XTP	62	288	4
XTP	62	288	6
TAP	63	0	3
TAP	63	48	3
XST	63	96	2
SCR	63	96	2	96	48	5
XTP	63	96	4
TTP	63	192	0	C	1	M1

T_REC_TAP	149
T_REC_BRK	22
T_REC_XTP	36
T_REC_HLD	69
T_REC_XHO	14
T_REC_STR	29
T_REC_BST	0
T_REC_XST	15
T_REC_TTP	43
T_REC_THO	0
T_REC_SLD	56
T_REC_ALL	433
T_NUM_TAP	272
T_NUM_BRK	22
T_NUM_HLD	83
T_NUM_SLD	56
T_NUM_ALL	433
T_JUDGE_TAP	294
T_JUDGE_HLD	132
T_JUDGE_SLD	56
T_JUDGE_ALL	482
TTM_EACHPAIRS	104
TTM_SCR_TAP	136000
TTM_SCR_BRK	57200
TTM_SCR_HLD	83000
TTM_SCR_SLD	84000
TTM_SCR_ALL	360200
TTM_SCR_S	347300
TTM_SCR_SS	358000
TTM_RAT_ACV	10061

