VERSION	0.00.00	1.03.00
FES_MODE	0
BPM_DEF	140.000	140.000	140.000	140.000
MET_DEF	4	4
RESOLUTION	384
CLK_DEF	384
COMPATIBLE_CODE	MA2

BPM	0	0	140.000
MET	0	0	4	4

TAP	2	0	2
TAP	2	96	2
TAP	2	192	2
TAP	2	192	3
TAP	3	0	5
TAP	3	96	5
TAP	3	192	4
TAP	3	192	5
TAP	4	0	2
TAP	4	96	2
TAP	4	192	2
TAP	4	192	3
TAP	5	0	4
TAP	5	96	4
TAP	5	192	3
TAP	5	192	5
TAP	6	0	6
TAP	6	96	6
TAP	6	192	6
TAP	6	192	7
TAP	7	0	1
TAP	7	96	1
TAP	7	192	0
TAP	7	192	1
TAP	8	0	6
TAP	8	96	6
TAP	8	192	6
TAP	8	192	7
TAP	9	0	0
TAP	9	96	0
TAP	9	96	7
TAP	9	192	1
TAP	9	192	6
HLD	10	0	5	192
TAP	10	192	4
HLD	11	0	2	192
TAP	11	192	3
HLD	12	0	5	192
TAP	12	192	4
HLD	13	0	2	96
HLD	13	0	3	96
TAP	13	192	2
TAP	13	192	3
HLD	14	0	1	192
TAP	14	192	0
HLD	15	0	6	192
TAP	15	192	7
HLD	16	0	1	192
TAP	16	192	0
HLD	17	0	0	96
HLD	17	0	7	96
TAP	17	192	0
TAP	17	192	7
TTP	18	0	6	E	0	L1
TTP	18	96	5	B	0	L1
TTP	18	192	4	B	0	L1
TTP	19	0	2	E	0	L1
TTP	19	96	2	B	0	L1
TTP	19	192	3	B	0	L1
TTP	20	0	6	E	0	L1
TTP	20	96	5	B	0	L1
TTP	20	192	4	B	0	L1
XTP	21	0	3
XTP	21	96	3
XTP	21	96	4
XTP	21	192	2
XTP	21	192	5
BRK	22	0	6
TAP	22	96	6
TAP	22	192	6
TAP	22	192	7
TAP	22	288	6
TAP	22	288	7
TAP	23	0	5
TAP	23	96	4
TAP	23	192	3
TAP	23	192	5
TAP	24	0	2
TAP	24	96	2
TAP	24	192	2
TAP	24	192	3
TAP	24	288	2
TAP	24	288	3
TAP	25	0	1
TAP	25	96	0
TAP	25	192	1
TAP	25	192	7
BRK	26	0	1
TAP	26	96	1
TAP	26	192	0
TAP	26	192	1
TAP	26	288	0
TAP	26	288	1
TAP	27	0	2
TAP	27	96	3
TAP	27	192	2
TAP	27	192	4
TAP	28	0	5
TAP	28	96	5
TAP	28	192	4
TAP	28	192	5
TAP	28	288	4
TAP	28	288	5
TAP	29	0	6
TAP	29	96	7
TAP	29	192	0
TAP	29	192	6
TAP	30	0	5
TAP	30	96	4
TAP	30	96	5
TAP	30	192	2
TAP	30	288	2
TAP	30	288	3
TAP	31	0	4
TAP	31	96	3
TAP	31	96	4
BRK	31	192	2
BRK	31	192	5
HLD	32	0	6	384
HLD	33	0	7	384
HLD	34	0	0	384
XTP	35	0	1
STR	36	0	2
SCL	36	0	2	96	144	7
STR	37	0	6
SCL	37	0	6	96	144	3
STR	38	0	2
SCL	38	0	2	96	144	7
STR	39	0	6
SCL	39	0	6	96	144	3
TTP	40	0	3	E	0	L1
TTP	40	96	2	E	0	L1
TTP	40	192	1	E	0	L1
TTP	40	288	0	E	0	L1
TTP	41	0	1	B	0	L1
TTP	41	0	6	B	0	L1
TTP	41	96	2	B	0	L1
TTP	41	96	5	B	0	L1
TTP	41	192	3	E	0	L1
TTP	41	192	5	E	0	L1
BRK	42	0	1
TAP	42	96	0
TAP	42	96	1
TAP	42	192	1
TAP	42	288	0
TAP	42	288	1
TAP	43	0	2
TAP	43	96	3
TAP	43	192	2
TAP	43	192	4
TAP	44	0	5
TAP	44	96	4
TAP	44	96	5
TAP	44	192	5
TAP	44	288	4
TAP	44	288	5
TAP	45	0	6
TAP	45	96	7
TAP	45	192	0
TAP	45	192	6
BRK	46	0	6
TAP	46	96	6
TAP	46	96	7
TAP	46	192	6
TAP	46	288	6
TAP	46	288	7
TAP	47	0	5
TAP	47	96	4
TAP	47	192	3
TAP	47	192	5
TAP	48	0	2
TAP	48	96	2
TAP	48	96	3
TAP	48	192	2
TAP	48	288	2
TAP	48	288	3
TAP	49	0	1
TAP	49	96	0
TAP	49	192	1
TAP	49	192	7
TAP	50	0	2
TAP	50	96	2
TAP	50	96	3
TAP	50	192	5
TAP	50	288	4
TAP	50	288	5
TAP	51	0	3
TAP	51	96	3
TAP	51	96	4
XTP	51	192	2
XTP	51	192	5
BRK	52	0	6
TAP	52	96	6
TAP	52	96	7
TAP	52	192	6
TAP	52	288	6
TAP	52	288	7
TAP	53	0	5
TAP	53	96	4
TAP	53	192	3
TAP	53	288	2
TAP	54	0	1
TAP	54	96	0
TAP	54	96	1
TAP	54	192	1
TAP	54	288	0
TAP	54	288	1
TAP	55	0	2
TAP	55	96	3
TAP	55	192	2
TAP	55	192	4
BRK	56	0	5
TAP	56	96	4
TAP	56	96	5
TAP	56	192	5
TAP	56	288	4
TAP	56	288	5
TAP	57	0	6
TAP	57	96	7
TAP	57	192	0
TAP	57	288	1
TAP	58	0	2
TAP	58	96	2
TAP	58	96	3
TAP	58	192	2
TAP	58	288	2
TAP	58	288	3
TAP	59	0	1
TAP	59	96	0
TAP	59	96	7
TAP	59	192	1
TAP	59	192	6
TAP	60	0	5
TAP	60	96	4
TAP	60	96	5
TAP	60	192	2
TAP	60	288	2
TAP	60	288	3
TAP	61	0	4
TAP	61	96	3
TAP	61	96	4
BRK	61	192	2
BRK	61	192	5
TAP	62	0	6
TAP	62	0	7
TAP	62	96	6
TAP	62	96	7
TAP	62	192	0
TAP	62	192	1
TAP	62	288	0
TAP	62	288	1
TAP	63	0	2
TAP	63	0	3
TAP	63	96	2
TAP	63	96	3
BRK	63	192	1
BRK	63	192	4

T_REC_TAP	197
T_REC_BRK	12
T_REC_XTP	8
T_REC_HLD	13
T_REC_XHO	0
T_REC_STR	4
T_REC_BST	0
T_REC_XST	0
T_REC_TTP	19
T_REC_THO	0
T_REC_SLD	4
T_REC_ALL	257
T_NUM_TAP	228
T_NUM_BRK	12
T_NUM_HLD	13
T_NUM_SLD	4
T_NUM_ALL	257
T_JUDGE_TAP	240
T_JUDGE_HLD	56
T_JUDGE_SLD	4
T_JUDGE_ALL	300
TTM_EACHPAIRS	69
TTM_SCR_TAP	114000
TTM_SCR_BRK	31200
TTM_SCR_HLD	13000
TTM_SCR_SLD	6000
TTM_SCR_ALL	164200
TTM_SCR_S	158150
TTM_SCR_SS	163000
TTM_RAT_ACV	10073

