VERSION	0.00.00	1.03.00
FES_MODE	0
BPM_DEF	170.000	170.000	170.000	170.000
MET_DEF	4	4
RESOLUTION	384
CLK_DEF	384
COMPATIBLE_CODE	MA2

BPM	0	0	170.000
MET	0	0	4	4

BRK	1	0	0
BST	1	96	1
SCR	1	96	1	96	48	4
TAP	1	192	5
TAP	1	240	5
TAP	1	288	6
TAP	1	336	7
TAP	2	0	0
TAP	2	48	0
TAP	2	96	3
HLD	2	144	1	96
TAP	2	144	4
TAP	2	240	6
TAP	2	288	7
TAP	2	336	7
TAP	3	0	4
TAP	3	48	3
HLD	3	48	6	96
TAP	3	144	1
STR	3	192	1
SCR	3	192	1	96	48	4
TAP	3	240	7
HLD	3	288	7	96
TAP	4	0	4
TAP	4	48	4
TAP	4	96	3
TAP	4	96	5
TAP	4	144	2
TAP	4	144	6
TAP	4	192	1
TAP	4	240	0
TAP	4	288	1
TAP	4	288	7
TAP	4	336	2
TAP	4	336	6
TAP	5	0	5
TAP	5	48	4
TAP	5	96	3
TAP	5	96	5
TAP	5	144	2
TAP	5	144	6
STR	5	192	1
SCR	5	192	1	96	48	4
STR	5	192	7
SCL	5	192	7	96	48	4
TAP	6	0	5
TAP	6	48	5
TAP	6	96	4
TAP	6	144	3
HLD	6	144	6	96
TAP	6	240	1
TAP	6	288	0
TAP	6	336	0
TAP	7	0	3
HLD	7	48	1	96
TAP	7	48	4
TAP	7	144	6
STR	7	192	6
SCL	7	192	6	96	48	3
TAP	7	240	0
HLD	7	288	0	96
TAP	8	0	3
TAP	8	48	3
TAP	8	96	2
TAP	8	96	4
TAP	8	144	1
TAP	8	144	5
TAP	8	192	6
TAP	8	240	7
TAP	8	288	0
TAP	8	288	6
TAP	8	336	1
TAP	8	336	5
TAP	9	0	2
TAP	9	48	3
TAP	9	96	4
HLD	9	144	3	96
TAP	9	144	4
TAP	9	240	5
STR	9	288	6
SLL	9	288	6	96	96	2
TAP	10	0	1
TAP	10	96	0
TAP	10	144	0
TAP	10	192	7
STR	10	288	0
SI_	10	288	0	96	48	3
TAP	10	288	6
TAP	11	0	6
TAP	11	48	5
TAP	11	96	5
HLD	11	192	4	48
HLD	11	192	6	48
HLD	11	288	4	48
HLD	11	288	6	48
TAP	12	0	3
STR	12	0	7
SLL	12	0	7	96	96	3
TAP	12	96	2
TAP	12	144	2
STR	12	192	1
SI_	12	192	1	96	48	5
TAP	12	288	6
TAP	13	0	7
TAP	13	48	7
STR	13	96	0
SI_	13	96	0	96	48	3
STR	13	96	6
SI_	13	96	6	96	48	3
STR	13	288	1
SXR	13	288	1	96	192	6
XST	14	96	5
SXR	14	96	5	96	192	2
TAP	14	288	0
HLD	15	0	0	576
TAP	15	192	4
TAP	15	288	4
TAP	16	0	3
TAP	16	96	1
TAP	16	192	7
TAP	16	288	3
HLD	16	288	6	96
HLD	17	0	5	96
HLD	17	96	1	192
HLD	17	192	7	96
STR	18	0	1
SCR	18	0	1	96	48	4
STR	18	144	6
SCR	18	144	6	96	48	1
HLD	18	288	3	96
TAP	19	0	5
TAP	19	48	5
TAP	19	96	4
STR	19	192	3
SI_	19	192	3	96	48	0
TAP	19	288	4
STR	20	0	6
SCL	20	0	6	96	48	3
STR	20	144	1
SCL	20	144	1	96	48	6
HLD	20	288	4	96
TAP	21	0	1
TAP	21	48	1
STR	21	96	2
SXR	21	96	2	96	144	3
TAP	21	96	3
TAP	21	192	5
XTP	21	240	6
XTP	21	288	6
HLD	22	0	7	72
HLD	22	72	5	72
TAP	22	144	4
HLD	22	192	0	72
HLD	22	264	2	72
TAP	22	336	3
TAP	23	0	1
TAP	23	0	4
XTP	23	96	0
XTP	23	144	7
XST	23	192	6
SI_	23	192	6	96	48	2
TAP	23	288	3
STR	23	336	3
SI_	23	336	3	96	48	0
HLD	24	48	4	96
XTP	24	144	0
XTP	24	192	0
TAP	24	288	2
TAP	24	288	6
STR	24	336	1
SCL	24	336	1	96	48	6
STR	25	48	5
SUR	25	48	5	96	48	2
TAP	25	144	4
TAP	25	192	4
XTP	25	240	7
XTP	25	288	7
STR	26	0	0
SLL	26	0	0	96	48	4
SLR	26	0	0	96	48	4
STR	26	192	2
SI_	26	192	2	96	48	7
HLD	26	192	6	96
TAP	26	288	2
STR	26	336	5
SCL	26	336	5	96	48	2
TAP	27	48	0
STR	27	96	0
SCL	27	96	0	96	48	5
STR	27	192	0
SCR	27	192	0	96	48	3
STR	27	288	0
SI_	27	288	0	96	48	4
TAP	28	0	0
TAP	28	96	3
TAP	28	96	5
TAP	28	144	2
TAP	28	144	6
TAP	28	192	2
TAP	28	192	6
STR	28	288	1
SI_	28	288	1	96	48	3
TAP	29	0	1
STR	29	0	7
SI_	29	0	7	96	48	5
STR	29	96	0
SI_	29	96	0	96	48	4
TAP	29	96	7
TAP	29	192	0
TAP	29	192	6
XTP	29	240	7
XTP	29	288	7
STR	30	0	0
SCL	30	0	0	96	48	5
STR	30	0	5
SI_	30	0	5	96	48	3
TAP	30	96	0
STR	30	96	5
SXL	30	96	5	96	144	1
XTP	30	192	1
TAP	30	288	3
HLD	30	336	3	96
TAP	31	48	2
STR	31	96	2
SI_	31	96	2	96	48	6
STR	31	192	4
SI_	31	192	4	96	48	0
STR	31	288	3
SI_	31	288	3	96	48	7
TAP	32	0	5
TAP	32	96	0
TAP	32	144	0
TAP	32	192	1
TAP	32	192	7
TAP	32	288	3
HLD	32	288	6	96
HLD	33	0	5	96
HLD	33	96	1	192
HLD	33	192	7	96
STR	34	0	7
SLL	34	0	7	96	48	3
SLR	34	0	7	96	48	3
HLD	34	192	1	96
STR	34	192	5
SI_	34	192	5	96	48	0
TAP	34	288	5
STR	34	336	2
SCR	34	336	2	96	48	5
TAP	35	48	7
STR	35	96	7
SCR	35	96	7	96	48	2
STR	35	192	7
SCL	35	192	7	96	48	4
STR	35	288	7
SI_	35	288	7	96	48	3
TAP	36	0	7
TAP	36	96	2
TAP	36	96	4
TAP	36	144	1
TAP	36	144	5
TAP	36	192	1
TAP	36	192	5
STR	36	288	6
SI_	36	288	6	96	48	4
STR	37	0	0
SI_	37	0	0	96	48	2
TAP	37	0	6
TAP	37	96	0
STR	37	96	7
SI_	37	96	7	96	48	3
TAP	37	192	1
TAP	37	192	7
XTP	37	240	0
XTP	37	288	0
STR	38	0	2
SI_	38	0	2	96	48	4
STR	38	0	7
SCR	38	0	7	96	48	2
STR	38	96	2
SXR	38	96	2	96	144	6
TAP	38	96	7
XTP	38	192	6
TAP	38	288	4
HLD	38	336	4	96
TAP	39	48	5
STR	39	96	5
SI_	39	96	5	96	48	1
STR	39	192	3
SI_	39	192	3	96	48	7
STR	39	288	4
SI_	39	288	4	96	48	0
TAP	40	0	2
TAP	40	96	7
TAP	40	144	7
TAP	40	192	0
TAP	40	192	6
TAP	40	288	3
TAP	40	288	5
STR	41	0	1
SCR	41	0	1	96	48	4
STR	41	0	7
SCL	41	0	7	96	48	4
TAP	41	48	0
BRK	41	192	2
BRK	41	192	6
XTP	41	240	7
XTP	41	288	0
STR	42	0	1
SCL	42	0	1	96	48	6
TAP	42	96	3
STR	42	144	4
SCL	42	144	4	96	48	1
TAP	42	240	6
STR	42	288	7
SI_	42	288	7	96	48	3
TAP	43	0	0
TAP	43	48	0
TAP	43	96	4
TAP	43	144	4
STR	43	192	3
SI_	43	192	3	96	48	0
TAP	43	240	3
TAP	43	288	5
TAP	43	336	5
STR	44	0	6
SCR	44	0	6	96	48	1
TAP	44	96	4
STR	44	144	3
SCR	44	144	3	96	48	6
TAP	44	240	1
STR	44	288	0
SI_	44	288	0	96	48	4
TAP	45	0	7
TAP	45	48	7
STR	45	96	3
SI_	45	96	3	96	48	0
STR	45	144	3
SI_	45	144	3	96	48	6
TAP	45	288	0
STR	46	0	1
SCL	46	0	1	96	48	6
TAP	46	96	3
STR	46	144	4
SCL	46	144	4	96	48	1
TAP	46	240	6
STR	46	288	7
SI_	46	288	7	96	48	3
TAP	47	0	0
TAP	47	48	0
TAP	47	96	4
TAP	47	144	4
TAP	47	192	2
TAP	47	240	2
TAP	47	288	2
TAP	47	288	3
TAP	48	0	1
TAP	48	0	4
TAP	48	96	3
HLD	48	96	6	96
HLD	48	192	5	96
HLD	48	288	1	96
TAP	49	0	7
XTP	49	192	5
XTP	49	240	4
XTP	49	288	3
XTP	49	336	2
STR	50	0	1
SCR	50	0	1	96	288	6
HLD	50	96	7	384
TAP	51	96	4
HLD	51	192	6	72
HLD	51	264	5	72
TAP	51	336	4
STR	52	0	4
SCR	52	0	4	96	48	7
TAP	52	96	2
HLD	52	144	2	96
TAP	52	240	3
TAP	52	288	1
TAP	52	288	4
TAP	53	0	1
TAP	53	0	4
TAP	53	48	2
TAP	53	72	3
TAP	53	96	2
TAP	53	120	3
TAP	53	144	1
TAP	53	192	5
TAP	53	216	4
TAP	53	240	5
TAP	53	264	4
STR	53	288	6
SCL	53	288	6	96	288	1
TAP	53	312	3
TAP	53	336	6
HLD	54	0	0	288
TAP	55	0	3
TAP	55	72	1
TAP	55	72	7
TAP	55	144	3
TAP	55	144	5
TAP	55	192	7
TAP	55	264	0
TAP	55	264	6
TAP	55	336	2
TAP	55	336	4
TAP	56	0	5
TAP	56	72	4
TAP	56	72	6
TAP	56	144	3
TAP	56	144	7
TAP	56	192	3
STR	56	192	7
SI_	56	192	7	96	48	3
XHO	56	288	2	96
TAP	57	0	5
TAP	57	48	3
TAP	57	72	4
TAP	57	96	3
TAP	57	144	2
TAP	57	144	5
TAP	57	192	2
TAP	57	192	5
TAP	57	240	1
TAP	57	240	6
STR	57	288	0
SI_	57	288	0	96	48	3
STR	57	288	7
SI_	57	288	7	96	48	4
TAP	58	96	2
HLD	58	96	5	96
HLD	58	192	7	96
HLD	58	288	1	96
TAP	59	0	3
TAP	59	48	3
TAP	59	96	5
HLD	59	144	5	96
STR	59	240	4
SI_	59	240	4	96	48	0
STR	59	336	7
SCL	59	336	7	96	48	4
TAP	60	48	0
TAP	60	96	0
TAP	60	144	1
TAP	60	192	2
TAP	60	192	5
STR	60	240	3
SLR	60	240	3	96	96	0
STR	60	240	4
SLL	60	240	4	96	96	7
XTP	61	144	0
XTP	61	144	7
XTP	61	192	0
XTP	61	192	7
TAP	61	288	1
TAP	61	288	5
STR	61	336	2
SCR	61	336	2	96	48	5
STR	61	336	6
SCR	61	336	6	96	48	1
STR	62	144	0
SCL	62	144	0	96	48	5
STR	62	144	4
SCL	62	144	4	96	48	1
STR	62	336	2
SI_	62	336	2	96	48	5
STR	62	336	6
SI_	62	336	6	96	48	1
TAP	63	48	2
TAP	63	48	6
TAP	63	144	3
TAP	63	144	7
TAP	63	192	3
HLD	63	192	7	480
STR	63	336	4
SI_	63	336	4	96	48	0
XTP	64	144	0
XHO	64	192	0	96
TTP	65	0	2	B	0	M1
TTP	65	0	2	E	0	M1
TTP	65	0	3	E	0	M1
TTP	65	96	5	B	0	M1
TTP	65	96	5	E	0	M1
TTP	65	96	6	E	0	M1
XTP	65	192	3
XTP	65	240	2
XTP	65	240	4
XTP	65	288	1
XTP	65	288	5
XTP	65	336	0
XTP	65	336	6
STR	66	0	7
SLL	66	0	7	96	48	3
SLR	66	0	7	96	48	3
HLD	66	192	1	96
STR	66	192	5
SI_	66	192	5	96	48	0
TAP	66	288	5
STR	66	336	2
SCR	66	336	2	96	48	5
TAP	67	48	7
STR	67	96	7
SCR	67	96	7	96	48	2
STR	67	192	7
SCL	67	192	7	96	48	4
STR	67	288	7
SI_	67	288	7	96	48	3
TAP	68	0	7
TAP	68	96	2
TAP	68	96	4
TAP	68	144	1
TAP	68	144	5
TAP	68	192	1
TAP	68	192	5
STR	68	288	6
SI_	68	288	6	96	48	4
STR	69	0	0
SI_	69	0	0	96	48	2
TAP	69	0	6
TAP	69	96	0
STR	69	96	7
SI_	69	96	7	96	48	3
TAP	69	192	1
TAP	69	192	7
XTP	69	240	0
XTP	69	288	0
STR	70	0	2
SI_	70	0	2	96	48	4
STR	70	0	7
SCR	70	0	7	96	48	2
STR	70	96	2
SXR	70	96	2	96	144	6
TAP	70	96	7
XTP	70	192	6
TAP	70	288	4
HLD	70	336	4	96
TAP	71	48	5
STR	71	96	5
SI_	71	96	5	96	48	1
STR	71	192	3
SI_	71	192	3	96	48	7
STR	71	288	4
SI_	71	288	4	96	48	0
TAP	72	0	2
TAP	72	96	7
TAP	72	144	0
TAP	72	144	6
TAP	72	192	1
TAP	72	192	5
TAP	72	288	3
HLD	72	288	6	96
HLD	73	0	5	96
HLD	73	96	1	192
HLD	73	192	7	96
STR	74	0	0
SLL	74	0	0	96	48	4
SLR	74	0	0	96	48	4
STR	74	192	2
SI_	74	192	2	96	48	7
HLD	74	192	6	96
TAP	74	288	2
STR	74	336	5
SI_	74	336	5	96	48	1
TAP	75	48	3
STR	75	96	3
SCL	75	96	3	96	48	0
BST	75	192	3
SCR	75	192	3	96	48	6
BST	75	288	3
SI_	75	288	3	96	48	7
BRK	76	0	3
TAP	76	96	2
TAP	76	96	4
TAP	76	144	1
TAP	76	144	5
TAP	76	192	1
TAP	76	192	5
STR	76	288	0
SI_	76	288	0	96	48	2
TAP	77	0	0
STR	77	0	4
SXR	77	0	4	96	192	7
TTP	77	96	0	C	1	M1
TAP	77	96	4
XTP	77	240	0
XTP	77	288	0
STR	78	0	0
SCL	78	0	0	96	48	5
STR	78	0	5
SI_	78	0	5	96	48	3
TAP	78	96	0
STR	78	96	5
SXL	78	96	5	96	144	1
XTP	78	192	1
TAP	78	288	3
HLD	78	336	3	96
TAP	79	48	2
STR	79	96	2
SI_	79	96	2	96	48	6
STR	79	192	4
SI_	79	192	4	96	48	0
STR	79	288	3
SI_	79	288	3	96	48	7
TAP	80	0	5
TAP	80	96	0
TAP	80	144	0
TAP	80	192	1
TAP	80	192	7
TAP	80	288	2
TAP	80	288	4
STR	81	0	0
SCR	81	0	0	96	48	3
STR	81	0	6
SCL	81	0	6	96	48	3
TAP	81	48	7
BRK	81	192	1
BRK	81	192	5
XTP	81	240	0
XTP	81	288	7
STR	82	0	6
SCR	82	0	6	96	48	1
TAP	82	96	4
STR	82	144	3
SCR	82	144	3	96	48	6
TAP	82	240	1
STR	82	288	0
SI_	82	288	0	96	48	4
TAP	83	0	7
TAP	83	48	7
TAP	83	96	3
TAP	83	144	3
STR	83	192	4
SI_	83	192	4	96	48	7
TAP	83	240	4
TAP	83	288	2
TAP	83	336	2
STR	84	0	1
SCL	84	0	1	96	48	6
TAP	84	96	3
STR	84	144	4
SCL	84	144	4	96	48	1
TAP	84	240	6
HLD	84	288	7	96
TAP	85	0	2
TAP	85	48	2
STR	85	96	4
SI_	85	96	4	96	48	6
STR	85	144	3
SI_	85	144	3	96	48	1
STR	85	192	4
SI_	85	192	4	96	48	7
STR	85	240	3
SI_	85	240	3	96	48	0
TAP	85	288	4
TAP	85	336	3
STR	86	0	6
SI_	86	0	6	96	48	1
STR	86	96	2
SI_	86	96	2	96	48	5
TAP	86	96	6
TAP	86	192	2
STR	86	192	7
SI_	86	192	7	96	48	4
STR	86	288	3
SI_	86	288	3	96	48	0
TAP	86	288	7
TAP	87	0	3
STR	87	0	4
SI_	87	0	4	96	48	7
STR	87	96	3
SV_	87	96	3	96	96	4
TAP	87	96	4
TAP	87	144	2
TAP	87	192	7
TAP	87	240	7
TAP	87	288	6
TAP	88	0	2
TAP	88	0	5
TAP	88	96	3
HLD	88	96	6	96
HLD	88	192	5	96
HLD	88	288	1	96
BRK	89	0	7

T_REC_TAP	305
T_REC_BRK	7
T_REC_XTP	40
T_REC_HLD	56
T_REC_XHO	2
T_REC_STR	126
T_REC_BST	3
T_REC_XST	2
T_REC_TTP	7
T_REC_THO	0
T_REC_SLD	135
T_REC_ALL	683
T_NUM_TAP	480
T_NUM_BRK	10
T_NUM_HLD	58
T_NUM_SLD	135
T_NUM_ALL	683
T_JUDGE_TAP	490
T_JUDGE_HLD	146
T_JUDGE_SLD	135
T_JUDGE_ALL	771
TTM_EACHPAIRS	110
TTM_SCR_TAP	240000
TTM_SCR_BRK	26000
TTM_SCR_HLD	58000
TTM_SCR_SLD	202500
TTM_SCR_ALL	526500
TTM_SCR_S	509750
TTM_SCR_SS	525500
TTM_RAT_ACV	10019

