VERSION	0.00.00	1.03.00
FES_MODE	0
BPM_DEF	170.000	170.000	170.000	170.000
MET_DEF	4	4
RESOLUTION	384
CLK_DEF	384
COMPATIBLE_CODE	MA2

BPM	0	0	170.000
MET	0	0	4	4

TTP	1	0	0	C	0	M1
TTP	1	96	2	E	0	M1
TTP	1	96	6	E	0	M1
TAP	2	0	2
TAP	2	0	3
TAP	2	96	1
TAP	2	144	1
TAP	2	288	4
TAP	2	288	5
TAP	3	0	6
TAP	3	48	6
TAP	3	192	2
TAP	3	192	3
TAP	3	288	3
TAP	3	288	4
TAP	4	0	4
TAP	4	0	5
TAP	4	96	6
TAP	4	144	6
TAP	4	288	2
TAP	4	288	3
TAP	5	0	1
TAP	5	48	1
TAP	5	192	4
TAP	5	192	5
TAP	5	288	3
TAP	5	288	4
TAP	6	0	2
TAP	6	0	3
TAP	6	96	0
TAP	6	144	0
TAP	6	288	4
TAP	6	288	5
TAP	7	0	7
TAP	7	48	7
TAP	7	192	3
TAP	7	192	4
TAP	7	288	2
TAP	7	288	5
TAP	8	0	1
TAP	8	0	6
TAP	8	96	0
TAP	8	96	7
TAP	8	144	0
TAP	8	144	7
STR	8	288	3
SXR	8	288	3	96	192	3
STR	8	288	4
SXL	8	288	4	96	192	4
TAP	10	0	2
HLD	10	0	5	192
TAP	10	96	2
TAP	10	192	2
TAP	10	288	2
HLD	10	288	4	192
TAP	11	0	2
TAP	11	96	2
TAP	11	192	2
TAP	11	192	3
TAP	11	288	4
TAP	11	288	5
TAP	12	0	2
HLD	12	0	3	192
TAP	12	96	2
STR	12	192	2
SCL	12	192	2	96	96	7
TAP	13	96	4
TAP	13	96	5
TAP	13	192	3
TAP	13	192	4
TAP	13	288	2
TAP	13	288	3
STR	14	0	1
SCR	14	0	1	96	96	4
STR	14	192	5
SCR	14	192	5	96	96	0
HLD	15	0	1	192
TAP	15	192	3
TAP	15	288	4
HLD	16	0	5	96
HLD	16	96	4	96
HLD	16	192	3	96
HLD	16	288	2	96
TAP	17	0	3
TAP	17	96	4
TAP	17	144	4
TAP	17	192	3
XTP	17	288	1
XTP	17	288	6
HLD	18	0	0	96
HLD	18	144	1	96
HLD	18	144	7	96
TAP	18	288	2
TAP	18	288	6
TAP	19	0	5
TTP	19	96	4	B	0	M1
TAP	19	192	2
TAP	19	240	2
TTP	19	288	3	B	0	M1
HLD	20	0	7	96
HLD	20	144	0	96
HLD	20	144	6	96
TAP	20	288	1
TAP	20	288	5
TAP	21	0	2
TTP	21	96	3	B	0	M1
TAP	21	192	5
TAP	21	240	5
TTP	21	288	4	B	0	M1
HLD	22	0	0	96
TAP	22	96	7
HLD	22	192	6	96
TAP	22	288	4
HLD	23	0	1	96
TAP	23	96	3
HLD	23	192	4	96
TAP	23	288	3
XTP	23	336	3
XTP	23	336	4
HLD	24	48	1	96
HLD	24	144	0	96
HLD	24	240	7	96
XTP	24	336	6
XTP	25	48	0
XTP	25	48	1
TAP	25	144	0
TAP	25	144	7
BRK	25	192	0
BRK	25	192	7
XTP	26	0	1
XTP	26	0	6
TAP	26	96	2
TAP	26	96	7
TAP	26	192	0
TAP	26	192	5
TAP	26	288	6
TAP	26	336	6
TAP	27	48	4
TAP	27	48	5
TAP	27	144	1
TAP	27	240	2
TAP	27	240	3
TAP	27	336	4
TAP	27	336	6
HLD	28	0	4	96
HLD	28	0	6	96
TAP	28	144	1
TAP	28	144	3
HLD	28	192	1	96
HLD	28	192	3	96
TAP	28	336	4
TAP	28	336	6
HLD	29	0	4	96
TAP	29	0	6
HLD	29	96	3	96
TAP	29	192	1
XTP	29	240	1
XTP	29	288	0
XTP	30	0	6
XTP	30	0	7
TAP	30	96	4
TAP	30	96	5
TAP	30	192	2
TAP	30	192	3
TAP	30	288	1
TAP	30	336	1
TAP	31	48	2
TAP	31	48	3
TAP	31	144	6
TAP	31	240	4
TAP	31	240	5
TAP	31	336	1
TAP	31	336	3
HLD	32	0	1	96
HLD	32	0	3	96
TAP	32	144	4
TAP	32	144	6
TAP	32	192	4
STR	32	192	6
SI_	32	192	6	96	48	2
TAP	33	0	1
TAP	33	96	7
TAP	33	144	7
XTP	33	192	0
BRK	33	288	1
BRK	33	288	6
XTP	34	0	3
XTP	34	0	4
TAP	34	96	0
TAP	34	96	5
TAP	34	192	2
TAP	34	192	7
TAP	34	288	0
TAP	34	336	0
TAP	35	48	2
TAP	35	48	3
TAP	35	144	7
TAP	35	240	4
TAP	35	240	5
TAP	35	336	1
TAP	35	336	3
HLD	36	0	1	96
HLD	36	0	3	96
TAP	36	144	4
TAP	36	144	6
HLD	36	192	4	96
HLD	36	192	6	96
TAP	36	336	1
TAP	36	336	3
TAP	37	0	1
HLD	37	0	3	96
HLD	37	96	4	96
TAP	37	192	6
XTP	37	240	6
XTP	37	288	7
XTP	38	0	0
XTP	38	0	1
TAP	38	96	2
TAP	38	96	3
TAP	38	192	4
TAP	38	192	5
TAP	38	288	7
TAP	38	336	7
TAP	39	48	4
TAP	39	48	5
TAP	39	144	0
TAP	39	240	2
TAP	39	240	3
TAP	39	336	4
TAP	39	336	6
HLD	40	0	4	96
HLD	40	0	6	96
TAP	40	144	1
TAP	40	144	3
STR	40	192	1
SI_	40	192	1	96	48	5
TAP	40	192	3
TAP	41	0	6
TAP	41	96	0
TAP	41	144	0
STR	41	192	7
SI_	41	192	7	96	48	3
BRK	41	288	0
HLD	42	0	1	96
TAP	42	96	2
HLD	42	144	2	96
TAP	42	240	3
TAP	42	288	3
TAP	43	0	4
TAP	43	0	5
TAP	43	96	3
TAP	43	96	6
TAP	43	192	2
TAP	43	240	3
TAP	43	288	1
TAP	43	288	4
HLD	44	0	6	96
TAP	44	96	5
HLD	44	144	5	96
TAP	44	240	4
TAP	44	288	4
TAP	45	0	2
TAP	45	0	3
TAP	45	96	1
TAP	45	96	4
TAP	45	192	5
TAP	45	240	4
TAP	45	288	3
TAP	45	288	6
HLD	46	0	7	96
TAP	46	96	0
HLD	46	144	0	96
TAP	46	240	7
TAP	46	288	7
TAP	47	0	3
TAP	47	0	4
TAP	47	96	2
TAP	47	96	5
TAP	47	192	0
TAP	47	240	7
TAP	47	288	1
TAP	47	288	6
TTP	48	0	3	E	0	M1
TTP	48	0	5	E	0	M1
TTP	48	96	0	C	0	M1
TTP	48	192	6	B	0	M1
TTP	48	192	7	E	0	M1
TTP	48	288	1	B	0	M1
TTP	48	288	1	E	0	M1
TTP	49	0	0	C	0	M1
TAP	49	192	3
TAP	49	240	3
TAP	49	288	4
TAP	49	336	4
STR	50	0	3
SUR	50	0	3	96	288	4
TAP	51	192	3
TAP	51	192	4
TAP	51	288	2
TAP	51	288	5
HLD	52	0	1	144
TAP	52	0	6
HLD	52	144	3	144
HLD	52	288	4	144
HLD	53	48	6	144
TAP	53	192	2
STR	53	288	1
SXR	53	288	1	96	288	1
STR	53	288	5
SXR	53	288	5	96	288	5
HLD	55	0	6	72
HLD	55	72	5	72
TAP	55	144	4
HLD	55	192	1	72
HLD	55	264	2	72
TAP	55	336	3
HLD	56	0	4	144
HLD	56	144	3	144
TAP	56	288	4
TAP	57	0	3
TAP	57	48	3
TAP	57	96	5
TAP	57	144	5
TAP	57	192	1
TAP	57	240	1
BRK	57	288	7
TAP	58	0	0
TAP	58	96	0
STR	58	192	0
SI_	58	192	0	96	48	2
TAP	58	288	7
TAP	59	0	6
TAP	59	96	6
STR	59	192	6
SI_	59	192	6	96	48	4
TAP	59	288	3
TAP	60	0	2
TAP	60	96	2
STR	60	192	2
SI_	60	192	2	96	48	4
TAP	60	288	5
TAP	61	0	6
TAP	61	96	7
HLD	61	192	0	96
TAP	61	288	7
TAP	61	336	0
TAP	61	336	7
TAP	62	48	1
TAP	62	48	6
TAP	62	144	2
TAP	62	144	5
TAP	62	240	3
TAP	62	240	4
TAP	62	336	0
TAP	62	336	1
TAP	63	48	6
TAP	63	48	7
TAP	63	144	3
TAP	63	144	4
TAP	63	192	3
TAP	63	192	4
TTP	63	336	2	E	0	M1
TTP	64	48	6	E	0	M1
TTP	64	144	3	B	0	M1
TTP	64	192	4	B	0	M1
XTP	65	0	3
XTP	65	96	5
XTP	65	192	1
XTP	65	240	1
XTP	65	288	7
XTP	65	336	7
BRK	66	0	0
TAP	66	96	4
TAP	66	96	6
TAP	66	192	1
TAP	66	192	3
TAP	66	288	7
HLD	66	336	7	96
HLD	67	48	5	96
HLD	67	144	3	96
TAP	67	240	1
TAP	67	336	0
TAP	67	336	2
HLD	68	0	0	96
HLD	68	0	2	96
TAP	68	144	5
TAP	68	144	7
HLD	68	192	5	96
HLD	68	192	7	96
TAP	68	336	0
TAP	68	336	2
TAP	69	0	0
TAP	69	0	2
TAP	69	96	2
TAP	69	96	4
TAP	69	192	4
TAP	69	192	6
XTP	69	240	7
XTP	69	288	7
XTP	70	0	0
XTP	70	0	5
TAP	70	96	2
TAP	70	96	7
TAP	70	192	4
TAP	70	192	5
TAP	70	288	1
HLD	70	336	1	96
HLD	71	48	0	96
HLD	71	144	7	96
TAP	71	240	6
TAP	71	336	0
TAP	71	336	5
HLD	72	0	0	96
HLD	72	0	5	96
TAP	72	144	2
TAP	72	144	7
TAP	72	192	2
STR	72	192	7
SI_	72	192	7	96	48	3
TAP	73	0	2
TAP	73	96	0
TAP	73	144	0
XTP	73	192	2
XTP	73	192	6
BRK	73	288	1
BRK	73	288	5
XTP	74	0	2
XTP	74	0	4
TAP	74	96	3
TAP	74	96	6
TAP	74	192	0
TAP	74	192	4
TAP	74	288	1
HLD	74	336	1	96
TAP	75	48	0
TAP	75	144	6
TAP	75	144	7
XTP	75	192	5
XTP	75	240	4
XTP	75	288	3
XTP	75	336	2
XHO	76	0	1	96
XHO	76	96	7	96
XHO	76	192	5	96
XST	76	288	3
SCL	76	288	3	96	240	4
BRK	77	288	0
XTP	78	0	1
XTP	78	0	6
TAP	78	96	2
TAP	78	96	7
TAP	78	192	0
TAP	78	192	5
TAP	78	288	6
HLD	78	336	6	96
HLD	79	48	7	96
HLD	79	144	0	96
TAP	79	240	1
TAP	79	336	2
TAP	79	336	7
HLD	80	0	2	96
HLD	80	0	7	96
TAP	80	144	0
TAP	80	144	5
TAP	80	192	0
STR	80	192	5
SCL	80	192	5	96	48	2
TAP	81	0	1
TAP	81	96	7
TAP	81	144	7
STR	81	192	0
SI_	81	192	0	96	48	4
BRK	81	288	7
HLD	82	0	5	96
TAP	82	96	6
HLD	82	144	6	96
TAP	82	240	7
TAP	82	288	7
TAP	83	0	0
TAP	83	0	1
TAP	83	96	2
TAP	83	96	7
TAP	83	192	6
TAP	83	240	7
TAP	83	288	0
TAP	83	288	5
HLD	84	0	2	96
TAP	84	96	1
HLD	84	144	1	96
TAP	84	240	0
TAP	84	288	0
TAP	85	0	6
TAP	85	0	7
TAP	85	96	0
TAP	85	96	5
TAP	85	192	1
TAP	85	240	0
TAP	85	288	2
TAP	85	288	7
STR	86	0	6
SI_	86	0	6	96	48	4
TAP	86	96	1
STR	86	192	1
SI_	86	192	1	96	48	3
TAP	86	288	7
STR	87	0	7
SI_	87	0	7	96	48	5
TAP	87	96	0
STR	87	192	0
SI_	87	192	0	96	48	2
TAP	87	288	7
XHO	88	0	3	96
XTP	88	0	4
TTP	88	96	6	E	0	M1
XTP	88	192	3
XHO	88	192	4	96
TTP	88	288	2	E	0	M1
TAP	89	0	0
TAP	89	0	7

T_REC_TAP	320
T_REC_BRK	11
T_REC_XTP	42
T_REC_HLD	76
T_REC_XHO	5
T_REC_STR	21
T_REC_BST	0
T_REC_XST	1
T_REC_TTP	21
T_REC_THO	0
T_REC_SLD	22
T_REC_ALL	519
T_NUM_TAP	405
T_NUM_BRK	11
T_NUM_HLD	81
T_NUM_SLD	22
T_NUM_ALL	519
T_JUDGE_TAP	416
T_JUDGE_HLD	176
T_JUDGE_SLD	22
T_JUDGE_ALL	614
TTM_EACHPAIRS	134
TTM_SCR_TAP	202500
TTM_SCR_BRK	28600
TTM_SCR_HLD	81000
TTM_SCR_SLD	33000
TTM_SCR_ALL	345100
TTM_SCR_S	333700
TTM_SCR_SS	344000
TTM_RAT_ACV	10031

