VERSION	0.00.00	1.03.00
FES_MODE	0
BPM_DEF	170.000	170.000	170.000	170.000
MET_DEF	4	4
RESOLUTION	384
CLK_DEF	384
COMPATIBLE_CODE	MA2

BPM	0	0	170.000
MET	0	0	4	4

TAP	2	0	2
TAP	2	96	2
TAP	2	192	3
TAP	2	288	3
TAP	3	0	4
TAP	3	96	4
TAP	3	192	3
TAP	3	192	5
TAP	4	0	6
TAP	4	96	6
TAP	4	192	7
TAP	4	288	7
TAP	5	0	0
TAP	5	96	0
TAP	5	192	0
TAP	5	192	7
TAP	6	0	1
TAP	6	96	1
TAP	6	192	0
TAP	6	288	0
TAP	7	0	7
TAP	7	96	7
TAP	7	192	0
TAP	7	192	6
TAP	8	0	5
TAP	8	96	5
TAP	8	192	4
TAP	8	288	4
TAP	9	0	3
TAP	9	96	3
TAP	9	192	2
TAP	9	192	4
HLD	10	0	5	192
TAP	10	192	4
HLD	11	0	2	192
TAP	11	192	3
HLD	12	0	5	192
TAP	12	192	4
HLD	13	0	2	96
HLD	13	0	3	96
TAP	13	192	2
TAP	13	192	3
TAP	14	0	5
TAP	14	96	5
TAP	14	192	4
TAP	14	192	5
TAP	15	0	2
TAP	15	96	2
TAP	15	192	2
TAP	15	192	3
TAP	16	0	4
TAP	16	96	4
TAP	16	192	3
TAP	16	288	3
TAP	17	0	4
TAP	17	96	3
TAP	17	192	2
TAP	17	192	5
STR	18	0	1
SCR	18	0	1	96	192	4
TAP	19	0	5
TAP	19	96	5
TAP	19	192	4
TAP	19	192	5
STR	20	0	6
SCL	20	0	6	96	192	3
TAP	21	0	2
TAP	21	96	2
TAP	21	192	2
TAP	21	192	3
TAP	22	0	5
TAP	22	96	5
TAP	22	192	4
TAP	22	192	5
TAP	23	0	2
TAP	23	96	2
TAP	23	192	2
TAP	23	192	3
TAP	24	0	5
TAP	24	96	5
TAP	24	192	4
TAP	24	288	4
XTP	25	0	3
XTP	25	0	4
XTP	25	96	3
XTP	25	96	4
XTP	25	192	2
XTP	25	192	5
TAP	26	0	1
TAP	26	96	1
TAP	26	192	0
TAP	26	192	1
TAP	26	288	0
TAP	26	288	1
TAP	27	0	6
TAP	27	96	6
TAP	27	192	6
TAP	27	192	7
TAP	27	288	6
TAP	27	288	7
TAP	28	0	5
TAP	28	96	5
TAP	28	192	4
TAP	28	288	4
TAP	29	0	3
TAP	29	96	3
TAP	29	192	2
TAP	29	192	4
TAP	30	0	5
TAP	30	96	5
TAP	30	192	4
TAP	30	192	5
TAP	30	288	4
TAP	30	288	5
TAP	31	0	2
TAP	31	96	2
TAP	31	192	2
TAP	31	192	3
TAP	31	288	2
TAP	31	288	3
TAP	32	0	1
TAP	32	96	1
TAP	32	192	0
TAP	32	288	0
TAP	33	0	7
TAP	33	96	7
TAP	33	192	0
TAP	33	192	6
TAP	34	0	6
TAP	34	96	6
TAP	34	192	6
TAP	34	192	7
TAP	34	288	6
TAP	34	288	7
TAP	35	0	1
TAP	35	96	1
TAP	35	192	0
TAP	35	192	1
TAP	35	288	0
TAP	35	288	1
TAP	36	0	2
TAP	36	96	2
TAP	36	192	3
TAP	36	288	3
TAP	37	0	4
TAP	37	96	4
TAP	37	192	3
TAP	37	192	5
TAP	38	0	2
TAP	38	96	2
TAP	38	192	2
TAP	38	192	3
TAP	38	288	2
TAP	38	288	3
TAP	39	0	5
TAP	39	96	5
TAP	39	192	4
TAP	39	192	5
TAP	39	288	4
TAP	39	288	5
TAP	40	0	6
TAP	40	96	6
TAP	40	192	7
TAP	40	288	7
TAP	41	0	0
TAP	41	0	7
TAP	41	96	0
TAP	41	96	7
BRK	41	192	1
BRK	41	192	6
STR	42	0	2
SI_	42	0	2	96	192	7
TAP	43	0	6
TAP	43	96	6
TAP	43	192	6
TAP	43	192	7
STR	44	0	5
SI_	44	0	5	96	192	0
TAP	45	0	1
TAP	45	96	1
TAP	45	192	0
TAP	45	192	1
STR	46	0	1
SI_	46	0	1	96	192	4
TAP	47	0	5
TAP	47	96	5
TAP	47	192	4
TAP	47	192	5
XTP	48	0	6
XTP	48	0	7
XTP	48	192	0
XTP	48	192	1
TTP	49	0	0	C	1	L1
TTP	49	0	2	B	0	L1
TTP	49	0	5	B	0	L1
HLD	50	0	6	384
HLD	51	0	7	384
HLD	52	0	0	384
TAP	53	0	1
HLD	54	0	2	384
HLD	55	0	3	384
HLD	56	0	4	384
TAP	57	0	5
STR	58	0	6
SUL	58	0	6	96	192	2
STR	59	0	1
SCR	59	0	1	96	192	4
STR	60	0	5
SCR	60	0	5	96	192	0
TAP	61	0	1
TAP	61	96	1
TAP	61	192	0
TAP	61	288	0
TAP	62	0	0
HLD	62	0	7	240
XTP	62	240	0
STR	62	336	0
SCR	62	336	0	96	192	3
STR	62	336	7
SCL	62	336	7	96	192	4
TTP	63	336	0	C	1	L1
TAP	66	0	6
TAP	66	96	6
TAP	66	96	7
TAP	66	192	6
TAP	66	288	6
TAP	66	288	7
TAP	67	0	1
TAP	67	96	0
TAP	67	96	1
TAP	67	192	1
TAP	67	288	0
TAP	67	288	1
TAP	68	0	2
TAP	68	96	2
TAP	68	192	3
TAP	68	288	3
TAP	69	0	4
TAP	69	96	4
TAP	69	192	3
TAP	69	192	5
TAP	70	0	2
TAP	70	96	2
TAP	70	96	3
TAP	70	192	2
TAP	70	288	2
TAP	70	288	3
TAP	71	0	5
TAP	71	96	4
TAP	71	96	5
TAP	71	192	5
TAP	71	288	4
TAP	71	288	5
TAP	72	0	6
TAP	72	96	6
TAP	72	192	7
TAP	72	288	7
TAP	73	0	0
TAP	73	96	0
TAP	73	192	1
TAP	73	192	7
TAP	74	0	1
TAP	74	96	0
TAP	74	96	1
TAP	74	192	1
TAP	74	288	0
TAP	74	288	1
TAP	75	0	6
TAP	75	96	6
TAP	75	96	7
TAP	75	192	6
TAP	75	288	6
TAP	75	288	7
TAP	76	0	5
TAP	76	96	5
TAP	76	192	4
TAP	76	288	4
TAP	77	0	3
TAP	77	96	3
TAP	77	192	2
TAP	77	192	4
TAP	78	0	5
TAP	78	96	4
TAP	78	96	5
TAP	78	192	5
TAP	78	288	4
TAP	78	288	5
TAP	79	0	2
TAP	79	96	2
TAP	79	96	3
TAP	79	192	2
TAP	79	288	2
TAP	79	288	3
TAP	80	0	1
TAP	80	96	1
TAP	80	192	0
TAP	80	288	0
TAP	81	0	0
TAP	81	0	7
TAP	81	96	0
TAP	81	96	7
BRK	81	192	1
BRK	81	192	6
STR	82	0	5
SCR	82	0	5	96	192	0
TAP	83	0	1
TAP	83	96	1
TAP	83	192	0
TAP	83	192	1
STR	84	0	2
SCL	84	0	2	96	192	7
TAP	85	0	6
TAP	85	96	6
TAP	85	192	6
TAP	85	192	7
TAP	86	0	0
TAP	86	96	1
TAP	86	192	2
TAP	86	288	3
TAP	87	0	4
TAP	87	96	5
TAP	87	192	6
TAP	87	288	7
XTP	88	0	0
XTP	88	0	1
XTP	88	192	6
XTP	88	192	7
TTP	89	0	0	C	0	L1

T_REC_TAP	268
T_REC_BRK	4
T_REC_XTP	15
T_REC_HLD	12
T_REC_XHO	0
T_REC_STR	12
T_REC_BST	0
T_REC_XST	0
T_REC_TTP	5
T_REC_THO	0
T_REC_SLD	12
T_REC_ALL	328
T_NUM_TAP	300
T_NUM_BRK	4
T_NUM_HLD	12
T_NUM_SLD	12
T_NUM_ALL	328
T_JUDGE_TAP	304
T_JUDGE_HLD	69
T_JUDGE_SLD	12
T_JUDGE_ALL	385
TTM_EACHPAIRS	71
TTM_SCR_TAP	150000
TTM_SCR_BRK	10400
TTM_SCR_HLD	12000
TTM_SCR_SLD	18000
TTM_SCR_ALL	190400
TTM_SCR_S	184300
TTM_SCR_SS	190000
TTM_RAT_ACV	10021

