VERSION	0.00.00	1.03.00
FES_MODE	0
BPM_DEF	200.000	200.000	200.000	200.000
MET_DEF	4	4
RESOLUTION	384
CLK_DEF	384
COMPATIBLE_CODE	MA2

BPM	0	0	200.000
MET	0	0	4	4

HLD	2	0	3	192
HLD	2	0	5	384
XTP	2	360	2
XHO	3	0	2	288
HLD	3	192	4	384
HLD	4	0	3	192
XTP	4	264	5
XHO	4	288	5	288
XTP	4	360	2
XHO	5	0	2	192
TAP	6	0	3
HLD	6	0	6	192
TAP	6	96	3
TAP	6	192	4
TAP	6	288	2
HLD	7	0	1	192
TAP	7	0	4
TAP	7	96	4
TAP	7	192	3
TAP	7	288	5
TAP	8	0	3
HLD	8	0	6	192
TAP	8	96	3
TAP	8	192	4
TAP	8	288	2
HLD	9	0	1	192
TAP	9	0	4
TAP	9	96	4
TAP	9	192	3
TAP	9	288	2
TAP	9	288	4
STR	10	0	5
SCL	10	0	5	96	96	2
TAP	10	96	0
STR	10	192	0
SCR	10	192	0	96	96	3
TAP	10	288	6
STR	11	0	7
SI_	11	0	7	96	96	3
TAP	11	96	2
TAP	11	192	1
TAP	11	288	0
STR	11	288	5
SI_	11	288	5	96	48	7
STR	12	0	1
SI_	12	0	1	96	48	3
STR	12	96	0
SI_	12	96	0	96	48	4
STR	12	192	4
SI_	12	192	4	96	48	1
SI_	12	192	4	96	48	7
STR	13	0	2
SCR	13	0	2	96	48	4
STR	13	0	6
SCL	13	0	6	96	48	4
XTP	13	192	1
XTP	13	192	7
BRK	13	288	0
HLD	14	0	2	48
HLD	14	0	4	48
HLD	14	96	3	48
HLD	14	96	5	48
HLD	14	192	2	48
HLD	14	192	4	48
TAP	14	288	2
TAP	14	336	4
STR	15	0	5
SI_	15	0	5	96	48	3
STR	15	96	0
SI_	15	96	0	96	48	2
TAP	15	192	6
HLD	15	240	6	96
TAP	15	336	3
STR	16	0	3
SXR	16	0	3	96	144	4
TAP	16	96	5
TAP	16	144	5
STR	16	240	7
SI_	16	240	7	96	48	3
TAP	16	336	1
TAP	17	0	1
STR	17	96	0
SI_	17	96	0	96	48	3
STR	17	96	7
SI_	17	96	7	96	48	4
TAP	17	288	1
TAP	17	288	6
TAP	18	0	2
HLD	18	0	5	96
HLD	18	96	7	96
HLD	18	192	0	96
HLD	18	288	2	96
TAP	19	0	4
TAP	19	48	4
TAP	19	96	3
TAP	19	144	3
TAP	19	192	5
TAP	19	240	6
TAP	19	288	2
TAP	19	336	1
HLD	20	0	7	192
TAP	20	96	5
HLD	20	192	0	192
TAP	20	288	2
TAP	21	0	7
STR	21	96	7
SF_	21	96	7	96	96	3
STR	22	0	6
SLL	22	0	6	96	192	2
TTP	22	192	4	B	0	M1
TTP	22	288	6	B	0	M1
TTP	22	288	7	B	0	M1
TAP	23	0	0
STR	23	96	0
SCL	23	96	0	96	96	5
SCR	23	96	0	96	96	3
STR	24	0	1
SLR	24	0	1	96	192	5
TTP	24	192	3	B	0	M1
TTP	24	288	0	B	0	M1
TTP	24	288	1	B	0	M1
TAP	25	0	7
STR	25	96	7
SV_	25	96	7	96	96	2
SV_	25	96	7	96	96	4
STR	26	0	0
SCR	26	0	0	96	96	3
TTP	26	192	1	B	0	M1
TTP	26	192	2	B	0	M1
STR	27	0	7
SCL	27	0	7	96	96	4
TTP	27	192	5	B	0	M1
TTP	27	192	6	B	0	M1
STR	28	0	3
SCL	28	0	3	96	96	0
STR	28	192	4
SCR	28	192	4	96	96	7
STR	29	0	2
SI_	29	0	2	96	48	7
STR	29	96	3
SI_	29	96	3	96	48	6
XTP	29	192	0
STR	30	0	2
SCR	30	0	2	96	96	5
TAP	30	192	6
TAP	30	240	6
TAP	30	288	4
STR	31	0	5
SCL	31	0	5	96	96	2
TAP	31	144	1
HLD	31	192	1	96
TAP	31	288	7
TAP	31	336	7
TAP	32	64	0
TAP	32	64	6
TAP	32	128	1
TAP	32	128	5
TAP	32	192	2
TAP	32	192	4
TAP	32	256	3
TAP	32	256	5
TAP	32	320	2
TAP	32	320	6
HLD	33	0	1	64
HLD	33	64	3	64
HLD	33	128	4	64
TAP	33	192	6
TAP	33	288	0
TAP	33	288	7
TAP	34	0	1
TAP	34	0	5
STR	34	96	2
SLL	34	96	2	96	96	6
STR	34	96	6
SLL	34	96	6	96	96	2
TAP	35	0	3
TAP	35	0	7
STR	35	96	0
SLR	35	96	0	96	96	4
STR	35	96	4
SLR	35	96	4	96	96	0
TAP	36	0	2
TAP	36	48	2
TAP	36	96	5
TAP	36	144	5
TAP	36	192	3
TAP	36	216	4
TAP	36	240	3
TAP	36	264	4
TAP	36	288	3
TAP	36	312	4
TAP	36	336	3
TAP	36	360	4
TAP	37	0	3
TAP	37	96	0
TAP	37	96	7
TAP	37	192	2
STR	37	192	5
SCL	37	192	5	96	48	3
TTP	37	288	2	E	0	M1
TAP	38	0	0
STR	38	48	0
SI_	38	48	0	96	48	3
SI_	38	48	0	96	48	5
TAP	38	96	1
TAP	38	96	7
STR	38	240	6
SI_	38	240	6	96	48	3
TAP	38	336	2
STR	39	48	1
SI_	39	48	1	96	48	5
TAP	39	144	7
TAP	39	192	7
TAP	39	288	4
TAP	39	288	6
TAP	39	336	7
STR	40	0	7
SCL	40	0	7	96	48	4
TAP	40	96	2
STR	40	144	2
SCL	40	144	2	96	48	7
TAP	40	240	4
TAP	40	288	4
HLD	40	336	5	96
TAP	41	48	2
STR	41	96	2
SLL	41	96	2	96	96	6
TAP	41	144	6
XTP	41	192	5
XTP	41	240	5
XTP	41	288	5
STR	42	0	4
SCR	42	0	4	96	96	0
STR	42	96	0
SCR	42	96	0	96	96	4
STR	42	192	4
SCR	42	192	4	96	96	0
TAP	42	288	0
TAP	43	0	4
STR	43	96	1
SI_	43	96	1	96	48	3
STR	43	96	7
SI_	43	96	7	96	48	5
XTP	43	288	2
XTP	43	288	6
TAP	44	0	7
STR	44	48	0
SI_	44	48	0	96	48	2
TAP	44	96	3
TAP	44	144	4
STR	44	240	7
SCL	44	240	7	96	96	2
TAP	44	288	4
HLD	44	336	3	192
XTP	45	144	0
STR	45	192	0
SV_	45	192	0	96	48	3
SV_	45	192	0	96	48	5
TAP	46	0	1
TAP	46	0	7
STR	46	48	1
SUL	46	48	1	96	48	5
TAP	46	48	7
STR	46	144	5
SCR	46	144	5	96	48	0
TAP	46	240	4
STR	46	336	3
SCL	46	336	3	96	48	0
TAP	47	48	6
XTP	47	144	7
XTP	47	192	7
TAP	47	288	3
TAP	47	288	6
TAP	47	336	2
TAP	48	0	2
TAP	48	0	4
TAP	48	96	0
TAP	48	96	7
STR	48	144	1
SCR	48	144	1	96	48	3
TAP	48	144	6
TAP	48	240	4
STR	48	336	7
SCL	48	336	7	96	48	5
TAP	49	48	4
STR	49	144	0
SI_	49	144	0	96	48	4
XST	49	192	6
SI_	49	192	6	96	48	2
XTP	49	240	0
XTP	49	288	6
XHO	49	336	0	96
TAP	50	48	7
TAP	50	96	7
TTP	50	192	0	C	1	M1
TTP	50	192	2	B	0	M1
TTP	50	192	3	B	0	M1
TTP	50	240	0	C	1	M1
TTP	50	240	4	B	0	M1
TTP	50	240	5	B	0	M1
TAP	50	336	0
TAP	51	0	0
TAP	51	48	1
STR	51	48	7
SSR	51	48	7	96	144	3
TAP	51	144	2
TAP	51	192	2
TAP	51	240	1
HLD	51	288	0	96
TAP	52	0	3
TAP	52	48	4
TAP	52	96	5
TAP	52	144	3
TAP	52	144	6
STR	52	240	2
SXR	52	240	2	96	192	4
STR	52	288	5
SXL	52	288	5	96	144	3
XTP	53	192	1
XTP	53	192	6
XTP	53	240	1
XTP	53	240	6
XST	53	288	1
SI_	53	288	1	96	48	4
XTP	53	288	6
STR	54	0	5
SI_	54	0	5	96	48	0
STR	54	96	2
SI_	54	96	2	96	48	7
STR	54	192	6
SI_	54	192	6	96	48	3
STR	54	288	1
SI_	54	288	1	96	48	4
STR	55	0	5
SI_	55	0	5	96	48	0
STR	55	96	2
SI_	55	96	2	96	48	7
TAP	55	192	6
TAP	55	240	6
STR	55	288	6
SI_	55	288	6	96	48	1
STR	56	0	2
SI_	56	0	2	96	48	5
STR	56	96	7
SI_	56	96	7	96	48	4
STR	56	192	3
SI_	56	192	3	96	48	0
STR	56	288	6
SI_	56	288	6	96	48	1
STR	57	0	2
SI_	57	0	2	96	48	5
STR	57	96	7
SI_	57	96	7	96	48	4
TAP	57	192	3
TAP	57	240	3
TAP	57	288	3
HLD	57	288	5	96
TAP	58	0	2
STR	58	48	1
SI_	58	48	1	96	48	5
TAP	58	96	4
TAP	58	144	5
STR	58	240	7
SI_	58	240	7	96	48	3
TAP	58	288	4
TAP	58	336	3
STR	59	48	1
SI_	59	48	1	96	48	5
TAP	59	96	5
HLD	59	144	6	96
TAP	59	240	0
HLD	59	288	0	96
TAP	60	0	5
STR	60	48	6
SI_	60	48	6	96	48	2
TAP	60	96	3
TAP	60	144	2
STR	60	240	0
SI_	60	240	0	96	48	4
TAP	60	288	3
TAP	60	336	4
TAP	61	48	6
TAP	61	96	6
TAP	61	144	4
TAP	61	192	3
TAP	61	240	3
TAP	61	240	4
TAP	61	288	2
TAP	61	288	5
TAP	62	0	0
TAP	62	0	7
TTP	62	96	3	B	0	M1
TTP	62	96	3	E	0	M1
TTP	62	96	4	B	0	M1
TTP	62	96	5	E	0	M1
TAP	62	192	2
TAP	62	192	5
TAP	62	288	0
TAP	62	288	7
TAP	62	336	0
TAP	62	336	7
TAP	63	48	5
TAP	63	72	4
TAP	63	96	6
TAP	63	144	2
TAP	63	168	3
STR	63	192	1
SI_	63	192	1	96	48	5
XTP	63	240	7
TAP	63	288	1
XTP	63	288	7
TAP	64	0	4
TAP	64	0	6
TAP	64	96	1
STR	64	96	3
SV_	64	96	3	96	48	0
SV_	64	96	3	96	48	6
XTP	64	288	7
XTP	64	336	7
TAP	65	48	1
TAP	65	72	3
TAP	65	96	2
TAP	65	144	6
TAP	65	168	4
STR	65	192	5
SI_	65	192	5	96	48	3
XTP	65	240	0
XTP	65	288	0
TAP	65	288	5
HLD	66	0	1	96
TAP	66	48	7
HLD	66	96	6	96
TAP	66	144	0
HLD	66	192	1	96
TAP	66	240	7
TAP	66	288	6
TAP	66	336	0
TAP	66	336	6
TAP	67	48	2
TAP	67	72	3
TAP	67	96	1
TAP	67	144	5
TAP	67	168	4
TAP	67	192	6
TTP	67	240	2	B	0	M1
TTP	67	240	2	E	0	M1
TTP	67	240	3	E	0	M1
TTP	67	288	5	B	0	M1
TTP	67	288	5	E	0	M1
TTP	67	288	6	E	0	M1
STR	68	0	0
SCR	68	0	0	96	96	3
STR	68	96	3
SCR	68	96	3	96	96	6
STR	68	192	6
SCR	68	192	6	96	96	1
TAP	68	288	1
STR	69	0	4
SF_	69	0	4	96	48	0
XTP	69	192	1
XTP	69	192	7
XTP	69	240	2
XTP	69	240	6
XTP	69	288	2
XTP	69	288	6
TAP	70	0	1
TAP	70	0	7
TTP	70	96	3	B	0	M1
TTP	70	96	3	E	0	M1
TTP	70	96	4	B	0	M1
TTP	70	96	5	E	0	M1
TAP	70	192	2
TAP	70	192	5
TAP	70	288	0
TAP	70	288	7
TAP	70	336	0
TAP	70	336	7
TAP	71	48	2
TAP	71	72	3
TAP	71	96	1
TAP	71	144	5
TAP	71	168	4
STR	71	192	6
SI_	71	192	6	96	48	2
BRK	71	240	0
BRK	71	288	0
TAP	71	288	6
TAP	72	0	1
TAP	72	0	3
STR	72	96	4
SV_	72	96	4	96	48	1
SV_	72	96	4	96	48	7
TAP	72	96	6
XTP	72	288	0
XTP	72	336	0
TAP	73	48	6
TAP	73	72	4
TAP	73	96	5
TAP	73	144	1
TAP	73	168	3
STR	73	192	2
SI_	73	192	2	96	48	4
BRK	73	240	7
TAP	73	288	2
BRK	73	288	7
HLD	74	0	6	96
TAP	74	48	3
HLD	74	96	1	96
TAP	74	144	4
HLD	74	192	6	96
TAP	74	240	3
TAP	74	288	1
TAP	74	336	1
TAP	74	336	4
TAP	75	48	6
TAP	75	72	4
TAP	75	96	5
TAP	75	144	1
TAP	75	168	3
TAP	75	192	2
TTP	75	240	6	B	0	M1
TTP	75	240	6	E	0	M1
TTP	75	240	7	E	0	M1
TTP	75	288	1	B	0	M1
TTP	75	288	1	E	0	M1
TTP	75	288	2	E	0	M1
STR	76	0	7
SCL	76	0	7	96	96	4
STR	76	96	4
SCL	76	96	4	96	96	1
STR	76	192	1
SCL	76	192	1	96	96	6
TAP	76	288	6
STR	77	0	3
SF_	77	0	3	96	48	7
XST	77	192	1
SCR	77	192	1	96	192	0
XTP	77	192	5
XTP	77	240	6
XTP	77	288	7
TAP	78	192	3
TAP	78	216	4
TAP	78	240	3
TAP	78	264	4
XTP	78	288	1
TAP	79	0	6
TAP	79	0	7
STR	79	48	6
SI_	79	48	6	96	48	2
STR	79	48	7
SI_	79	48	7	96	48	3
TAP	79	96	0
TAP	79	96	5
STR	79	240	1
SCR	79	240	1	96	48	4
TAP	79	240	4
TAP	79	336	5
STR	80	48	6
SI_	80	48	6	96	48	2
TAP	80	144	1
TAP	80	192	1
STR	80	288	0
SI_	80	288	0	96	48	3
TAP	80	336	0
STR	81	0	7
SI_	81	0	7	96	48	4
TAP	81	48	7
STR	81	96	2
SI_	81	96	2	96	48	5
TAP	81	144	2
STR	81	192	6
SI_	81	192	6	96	48	1
TAP	81	240	6
TAP	81	288	2
HLD	81	336	2	96
TAP	82	48	5
STR	82	96	5
SLR	82	96	5	96	96	1
TAP	82	144	1
XTP	82	192	2
XTP	82	240	2
XTP	82	288	2
STR	83	0	3
SCL	83	0	3	96	96	7
STR	83	96	7
SCL	83	96	7	96	96	3
STR	83	192	3
SCL	83	192	3	96	96	7
TAP	83	288	7
TAP	84	0	3
STR	84	96	2
SI_	84	96	2	96	48	4
STR	84	96	6
SI_	84	96	6	96	48	4
TAP	84	288	2
TAP	84	288	6
TAP	85	0	0
STR	85	48	7
SI_	85	48	7	96	48	5
TAP	85	96	4
TAP	85	144	3
STR	85	240	0
SCR	85	240	0	96	96	5
TAP	85	288	3
XHO	85	336	4	192
XTP	86	144	7
STR	86	192	7
SI_	86	192	7	96	48	2
SI_	86	192	7	96	48	4
TAP	87	0	0
TAP	87	0	6
TAP	87	48	0
STR	87	48	6
SUR	87	48	6	96	48	2
STR	87	144	2
SCL	87	144	2	96	48	7
TAP	87	240	3
STR	87	336	4
SCR	87	336	4	96	48	7
TAP	88	48	1
XTP	88	144	0
XTP	88	192	0
TAP	88	288	1
TAP	88	288	7
TAP	88	336	2
TAP	88	336	6
TAP	89	0	3
TAP	89	0	5
TAP	89	48	3
HLD	89	48	5	96
TAP	89	144	2
TAP	89	192	2
HLD	89	240	1	96
TAP	89	240	4
TAP	89	336	5
TAP	90	48	2
TAP	90	48	6
STR	90	144	7
SI_	90	144	7	96	48	3
XST	90	192	1
SI_	90	192	1	96	48	5
XTP	90	240	7
XTP	90	288	1
XHO	90	336	7	96
TAP	91	48	0
TAP	91	96	0
TTP	91	192	0	C	1	M1
TTP	91	192	4	B	0	M1
TTP	91	192	5	B	0	M1
TTP	91	240	0	C	1	M1
TTP	91	240	2	B	0	M1
TTP	91	240	3	B	0	M1
TAP	91	336	7
TAP	92	0	7
STR	92	48	0
SSL	92	48	0	96	144	4
TAP	92	48	6
TAP	92	144	5
TAP	92	192	5
TAP	92	240	6
HLD	92	288	7	96
TAP	93	0	4
TAP	93	48	3
TAP	93	96	2
TAP	93	144	1
TAP	93	144	6
STR	93	240	0
SI_	93	240	0	96	48	3
STR	93	240	7
SI_	93	240	7	96	48	4
TAP	94	48	2
TAP	94	48	5
TAP	94	96	2
TAP	94	96	5
TTP	94	192	4	B	0	M1
TTP	94	192	4	E	0	M1
TTP	94	192	5	B	0	M1
TTP	94	192	6	E	0	M1
TTP	94	288	2	B	0	M1
TTP	94	288	2	E	0	M1
TTP	94	288	3	B	0	M1
TTP	94	288	4	E	0	M1
STR	95	0	6
SCR	95	0	6	96	48	1
TAP	95	96	1
STR	95	192	2
SCR	95	192	2	96	48	5
TAP	95	288	6
TAP	95	336	7
STR	96	0	7
SLL	96	0	7	96	96	3
SLR	96	0	7	96	96	3
TAP	96	288	2
TAP	96	288	4
TAP	97	0	1
HLD	97	48	1	96
HLD	97	144	3	96
STR	97	240	4
SI_	97	240	4	96	48	7
SV_	97	240	4	96	48	1
TAP	98	48	3
TAP	98	48	5
TAP	98	144	0
TAP	98	192	0
TAP	98	240	1
TAP	98	240	7
TAP	98	288	1
TAP	98	288	7
TAP	99	0	4
TAP	99	0	6
TAP	99	48	5
TAP	99	96	3
TAP	99	96	4
TAP	99	144	2
STR	99	192	1
SI_	99	192	1	96	48	5
TAP	99	192	3
TAP	99	288	7
XST	99	336	7
SV_	99	336	7	96	48	2
SV_	99	336	7	96	48	4
XST	100	144	0
SV_	100	144	0	96	48	3
SV_	100	144	0	96	48	5
TAP	101	0	7
STR	101	48	0
SI_	101	48	0	96	48	5
STR	101	48	6
SI_	101	48	6	96	48	3
TAP	101	96	1
TAP	101	96	5
XTP	101	144	0
XTP	101	144	6
TAP	101	240	7
TAP	101	288	7
STR	101	336	0
SI_	101	336	0	96	48	5
STR	101	336	6
SI_	101	336	6	96	48	3
TAP	102	0	1
TAP	102	0	5
XTP	102	48	0
XTP	102	48	6
XTP	102	264	2
XTP	102	264	4
XTP	102	336	3
XTP	102	336	5
HLD	103	0	6	72
HLD	103	72	5	72
TAP	103	144	4
TAP	103	192	2
TAP	103	192	3
TAP	103	288	1
TAP	103	288	4
TAP	103	336	0
HLD	104	0	0	72
HLD	104	72	2	72
TAP	104	144	3
XTP	104	192	2
XTP	104	192	4
TAP	104	288	3
STR	104	288	5
SV_	104	288	5	96	48	3
TAP	105	0	2
STR	105	48	2
SV_	105	48	2	96	48	4
HLD	105	144	5	96
TAP	105	240	3
TAP	105	336	2
TAP	105	336	6
TAP	106	48	0
TAP	106	48	7
TAP	106	96	0
TAP	106	96	7
TAP	106	144	0
TAP	106	144	7
TTP	106	192	2	E	0	M1
TTP	106	216	2	B	0	M1
TTP	106	240	3	B	0	M1
TTP	106	264	4	B	0	M1
TTP	106	288	5	E	0	M1
TAP	107	0	6
TAP	107	48	6
TAP	107	96	1
TAP	107	96	7
TAP	107	144	1
TAP	107	144	7
STR	107	192	0
SI_	107	192	0	96	48	4
TAP	107	288	5
STR	107	336	5
SCL	107	336	5	96	48	2
STR	108	48	1
SCL	108	48	1	96	48	6
TAP	108	144	4
TAP	108	240	3
TAP	108	288	2
TAP	108	288	4
TAP	109	0	0
STR	109	48	1
SI_	109	48	1	96	48	4
STR	109	48	7
SI_	109	48	7	96	48	2
TAP	109	96	2
TAP	109	96	6
BRK	109	144	1
BRK	109	144	7
TAP	109	240	0
TAP	109	288	0
STR	109	336	1
SI_	109	336	1	96	48	4
STR	109	336	7
SI_	109	336	7	96	48	2
TAP	110	0	2
TAP	110	0	6
BRK	110	48	1
BRK	110	48	7
TAP	110	144	0
TAP	110	192	0
TAP	110	240	2
TAP	110	240	6
TAP	110	288	2
TAP	110	288	6
TAP	111	0	2
HLD	111	48	2	96
TAP	111	96	3
HLD	111	144	4	96
TAP	111	192	1
HLD	111	240	1	96
TAP	111	288	3
HLD	111	336	5	96
TAP	112	0	2
HLD	112	48	2	96
TAP	112	96	4
TAP	112	144	6
STR	112	192	4
SI_	112	192	4	96	48	0
TAP	112	240	7
TAP	112	288	7
TAP	113	0	5
HLD	113	48	5	96
TAP	113	96	4
HLD	113	144	3	96
TAP	113	192	6
HLD	113	240	6	96
TAP	113	288	2
HLD	113	336	1	96
TAP	114	0	5
HLD	114	48	5	96
TAP	114	96	3
TAP	114	144	2
STR	114	192	3
SI_	114	192	3	96	48	7
TAP	114	240	0
TAP	114	288	0
TAP	115	0	1
HLD	115	48	1	96
TAP	115	96	7
HLD	115	144	6	96
TAP	115	192	2
HLD	115	240	2	96
TAP	115	288	7
HLD	115	336	6	96
TAP	116	0	1
HLD	116	48	1	96
TAP	116	96	7
TAP	116	144	5
STR	116	192	0
SI_	116	192	0	96	48	4
TAP	116	240	7
TAP	116	288	7
TAP	117	0	6
HLD	117	48	6	96
TAP	117	96	0
HLD	117	144	1	96
TAP	117	192	5
HLD	117	240	5	96
TAP	117	288	0
HLD	117	336	1	96
TAP	118	0	6
TAP	118	48	6
TAP	118	96	3
STR	118	144	2
SLL	118	144	2	96	96	6
TAP	118	144	7
TAP	118	192	2
TAP	118	192	7
XTP	118	240	6
XTP	118	288	4
XTP	118	336	2

T_REC_TAP	400
T_REC_BRK	9
T_REC_XTP	60
T_REC_HLD	67
T_REC_XHO	6
T_REC_STR	134
T_REC_BST	0
T_REC_XST	6
T_REC_TTP	56
T_REC_THO	0
T_REC_SLD	152
T_REC_ALL	890
T_NUM_TAP	656
T_NUM_BRK	9
T_NUM_HLD	73
T_NUM_SLD	152
T_NUM_ALL	890
T_JUDGE_TAP	665
T_JUDGE_HLD	182
T_JUDGE_SLD	152
T_JUDGE_ALL	999
TTM_EACHPAIRS	122
TTM_SCR_TAP	328000
TTM_SCR_BRK	23400
TTM_SCR_HLD	73000
TTM_SCR_SLD	228000
TTM_SCR_ALL	652400
TTM_SCR_S	632000
TTM_SCR_SS	651500
TTM_RAT_ACV	10013

