VERSION	0.00.00	1.03.00
FES_MODE	0
BPM_DEF	200.000	200.000	200.000	200.000
MET_DEF	4	4
RESOLUTION	384
CLK_DEF	384
COMPATIBLE_CODE	MA2

BPM	0	0	200.000
MET	0	0	4	4

HLD	2	0	2	176
HLD	2	0	3	192
HLD	3	0	4	192
HLD	3	0	5	176
HLD	4	0	3	192
HLD	4	0	4	176
TAP	4	288	2
TAP	4	288	5
HLD	5	0	1	176
HLD	5	0	6	192
TAP	5	288	0
TAP	5	288	7
TAP	6	0	1
TAP	6	96	1
STR	6	192	1
SI_	6	192	1	96	72	3
TAP	6	288	4
TAP	7	0	6
TAP	7	96	6
STR	7	192	6
SI_	7	192	6	96	72	4
TAP	7	288	3
TAP	8	0	1
TAP	8	96	0
TAP	8	192	7
TAP	8	288	1
TAP	8	288	6
TAP	9	0	2
TAP	9	0	4
TAP	9	96	3
TAP	9	96	5
STR	9	192	2
SV_	9	192	2	96	120	1
STR	9	192	6
SV_	9	192	6	96	120	5
TTP	10	96	0	E	0	M1
TTP	10	192	0	C	0	M1
TTP	10	288	4	E	0	M1
TAP	11	0	2
TAP	11	0	5
TAP	11	96	6
TAP	11	192	1
TAP	11	288	3
TAP	11	288	4
TAP	12	0	6
TAP	12	96	6
TAP	12	96	7
TAP	12	192	1
TAP	12	288	0
TAP	12	288	1
STR	13	0	7
SI_	13	0	7	96	96	4
STR	13	96	0
SI_	13	96	0	96	96	3
TAP	14	0	6
TAP	14	96	7
STR	14	192	6
SI_	14	192	6	96	72	4
TAP	14	288	3
TAP	15	0	1
TAP	15	96	0
STR	15	192	1
SI_	15	192	1	96	72	3
TAP	15	288	4
TAP	16	0	6
TAP	16	96	7
TAP	16	192	0
TAP	16	288	1
TAP	16	288	6
TAP	17	0	3
TAP	17	0	5
STR	17	96	2
SCL	17	96	2	96	120	7
STR	17	96	6
SCL	17	96	6	96	120	3
TTP	18	0	6	E	0	M1
TTP	18	96	4	E	0	M1
TTP	18	192	2	E	0	M1
TTP	18	288	0	E	0	M1
TAP	19	0	1
TAP	19	0	5
TAP	19	96	4
TAP	19	192	3
TAP	19	288	2
TAP	19	288	6
TAP	20	0	5
TAP	20	96	4
TAP	20	96	6
TAP	20	192	2
TAP	20	288	1
TAP	20	288	3
STR	21	0	0
SI_	21	0	0	96	96	3
STR	21	96	7
SI_	21	96	7	96	96	4
HLD	22	0	3	384
TTP	22	192	2	B	0	M1
TTP	22	192	3	E	0	M1
HLD	23	0	4	192
TAP	23	192	5
TAP	23	288	4
TAP	24	0	3
TAP	24	96	3
TAP	24	192	4
TAP	24	288	4
TAP	25	0	3
TAP	25	0	5
TAP	25	96	2
TAP	25	96	6
TAP	25	192	1
TAP	25	192	7
HLD	26	0	4	384
TTP	26	192	5	E	0	M1
TTP	26	192	5	B	0	M1
HLD	27	0	3	384
TAP	27	192	2
TAP	28	0	4
TAP	28	96	4
TAP	28	192	3
TAP	28	288	3
TAP	29	0	2
TAP	29	0	4
TAP	29	96	1
TAP	29	96	5
TAP	29	192	0
TAP	29	192	6
TAP	30	0	2
TAP	30	96	2
TAP	30	192	1
HLD	30	192	3	192
TAP	31	0	2
TAP	31	96	2
TAP	31	96	3
TAP	31	192	1
TAP	31	192	4
TAP	32	0	5
TAP	32	96	5
HLD	32	192	4	192
TAP	32	192	6
TAP	33	0	5
TAP	33	96	4
TAP	33	96	5
TAP	33	192	3
TAP	33	192	6
HLD	34	0	3	96
TAP	34	0	5
HLD	34	96	2	96
TAP	34	192	1
TAP	35	0	2
HLD	35	0	4	96
HLD	35	96	5	96
TAP	35	192	6
STR	36	0	0
SI_	36	0	0	96	72	2
TAP	36	0	7
STR	36	192	4
SI_	36	192	4	96	72	6
TAP	37	0	7
TAP	37	96	0
TAP	37	96	6
TAP	37	192	1
TAP	37	192	5
TTP	37	288	4	E	0	M1
XHO	38	0	0	96
XTP	38	0	7
HLD	38	96	2	96
HLD	38	192	4	96
HLD	38	288	6	96
TAP	39	0	7
STR	39	96	0
SI_	39	96	0	96	96	4
TAP	39	96	5
TAP	39	192	7
TAP	40	0	3
TAP	40	0	5
TAP	40	96	1
TAP	40	96	4
TAP	40	192	2
TAP	40	192	6
TAP	40	288	0
TAP	40	336	0
TAP	41	48	1
TAP	41	48	3
TAP	41	144	4
TAP	41	144	6
XTP	41	240	7
XTP	41	288	7
TAP	42	0	1
TAP	42	0	5
TAP	42	96	4
TAP	42	96	5
TAP	42	192	2
TAP	42	192	6
TAP	42	288	2
TAP	42	288	3
TAP	43	0	1
TAP	43	0	4
TAP	43	96	4
TAP	43	96	5
TAP	43	192	3
TAP	43	192	6
TAP	43	288	2
TAP	43	288	3
TAP	44	0	0
TAP	44	0	4
TAP	44	96	3
TAP	44	96	5
TAP	44	144	3
TAP	44	144	5
STR	44	240	2
SI_	44	240	2	96	96	7
STR	44	240	6
SI_	44	240	6	96	96	3
XTP	45	144	1
XTP	45	144	5
XTP	45	192	1
XTP	45	192	5
BRK	45	288	7
HLD	46	0	3	96
TAP	46	0	5
HLD	46	96	1	96
HLD	46	192	7	96
HLD	46	288	5	96
TAP	47	0	4
TAP	47	96	2
STR	47	96	7
SI_	47	96	7	96	96	3
TAP	47	192	0
TAP	48	0	2
TAP	48	0	4
TAP	48	96	3
TAP	48	96	6
TAP	48	192	1
TAP	48	192	5
TAP	48	288	7
TAP	48	336	7
TAP	49	48	4
TAP	49	48	6
TAP	49	144	1
TAP	49	144	3
XTP	49	240	0
XTP	49	288	0
TAP	49	336	7
HLD	50	0	7	96
HLD	50	96	6	96
STR	50	192	5
SI_	50	192	5	96	72	3
HLD	51	0	0	96
HLD	51	96	1	96
STR	51	192	2
SI_	51	192	2	96	72	4
TAP	52	0	7
TAP	52	96	0
TAP	52	96	6
TAP	52	144	0
TAP	52	144	6
STR	52	240	2
SXR	52	240	2	96	240	3
STR	52	240	4
SXL	52	240	4	96	240	3
BRK	53	288	0
BRK	53	288	6
HLD	54	0	2	480
XTP	54	0	4
TAP	54	96	3
TAP	54	192	4
TAP	54	288	3
TAP	55	0	4
TAP	55	96	3
TAP	55	192	5
TAP	55	240	5
TAP	55	288	4
HLD	56	0	3	480
TAP	56	0	6
TAP	56	96	4
TAP	56	192	6
TAP	56	288	4
TAP	57	0	6
TAP	57	96	4
TAP	57	192	2
TAP	57	240	2
TAP	57	288	3
TAP	58	0	1
HLD	58	0	4	480
TAP	58	96	3
TAP	58	192	1
TAP	58	288	3
TAP	59	0	1
TAP	59	96	3
TAP	59	192	5
TAP	59	240	5
TAP	59	288	4
TAP	60	0	3
TAP	60	0	6
TAP	60	96	2
TAP	60	96	5
TAP	60	192	1
TAP	60	192	4
STR	60	288	3
SCL	60	288	3	96	288	4
TAP	62	0	6
TAP	62	96	6
TAP	62	96	7
TAP	62	192	5
TAP	62	288	4
TAP	63	0	3
TAP	63	0	4
TAP	63	96	5
TAP	63	144	5
TAP	63	192	4
TAP	63	288	2
TAP	63	288	7
TAP	64	0	1
TAP	64	96	0
TAP	64	96	1
TAP	64	192	2
TAP	64	288	3
TAP	65	0	3
TAP	65	0	4
TAP	65	96	2
TAP	65	144	2
TAP	65	192	3
TAP	65	288	0
TAP	65	288	5
TAP	66	0	6
TAP	66	96	6
TAP	66	96	7
TAP	66	192	2
TAP	66	288	2
TAP	66	288	3
TAP	67	0	1
TAP	67	0	4
TAP	67	96	0
TAP	67	144	0
TAP	67	192	7
TAP	67	288	1
TAP	67	288	6
HLD	68	0	5	96
HLD	68	96	4	96
HLD	68	192	3	96
TAP	68	288	2
TAP	69	0	1
TAP	69	0	4
STR	69	96	0
SV_	69	96	0	96	120	2
STR	69	96	7
SLL	69	96	7	96	120	3
TAP	70	0	1
TAP	70	96	0
TAP	70	96	1
TAP	70	192	2
TAP	70	288	3
TAP	71	0	4
TAP	71	0	5
TAP	71	96	2
TAP	71	144	2
TAP	71	192	3
TAP	71	288	0
TAP	71	288	5
TAP	72	0	6
TAP	72	96	6
TAP	72	96	7
TAP	72	192	5
TAP	72	288	4
TAP	73	0	2
TAP	73	0	3
TAP	73	96	5
TAP	73	144	5
TAP	73	192	4
TAP	73	288	2
TAP	73	288	7
TAP	74	0	1
TAP	74	96	0
TAP	74	96	1
TAP	74	192	5
TAP	74	288	4
TAP	74	288	5
TAP	75	0	3
TAP	75	0	6
TAP	75	96	7
TAP	75	144	7
TAP	75	192	0
TAP	75	288	2
TAP	75	288	5
HLD	76	0	1	96
HLD	76	96	3	96
HLD	76	192	4	96
TAP	76	288	6
TAP	77	0	0
TAP	77	0	7
STR	77	96	3
SXR	77	96	3	96	192	3
STR	77	96	4
SXL	77	96	4	96	192	4
XTP	78	192	3
XTP	78	224	4
XTP	78	256	3
XTP	78	288	4
XTP	79	0	1
XHO	79	0	6	96
HLD	79	96	4	96
HLD	79	192	2	96
HLD	79	288	0	96
TAP	80	0	7
STR	80	96	2
SI_	80	96	2	96	96	5
STR	80	96	6
SI_	80	96	6	96	96	1
TAP	81	0	0
TAP	81	0	6
TAP	81	96	3
TAP	81	96	4
TAP	81	192	1
TAP	81	192	7
TAP	81	288	0
TAP	81	336	0
TAP	82	48	1
TAP	82	48	3
TAP	82	144	4
TAP	82	144	6
XTP	82	240	7
XTP	82	288	7
TAP	83	0	3
TAP	83	0	6
TAP	83	96	2
TAP	83	96	3
TAP	83	192	1
TAP	83	192	4
TAP	83	288	4
TAP	83	288	5
TAP	84	0	3
TAP	84	0	7
TAP	84	96	1
TAP	84	96	3
TAP	84	192	0
TAP	84	192	4
TAP	84	288	4
TAP	84	288	6
TAP	85	0	3
TAP	85	0	7
TAP	85	96	2
TAP	85	96	4
TAP	85	144	2
TAP	85	144	4
STR	85	240	1
SI_	85	240	1	96	96	4
STR	85	240	5
SI_	85	240	5	96	96	0
XTP	86	144	7
XTP	86	192	7
XTP	86	240	0
BRK	86	288	0
TAP	87	0	2
TAP	87	0	5
TAP	87	48	2
TAP	87	48	5
HLD	87	144	1	96
TAP	87	240	2
HLD	87	336	6	96
TAP	88	48	5
XTP	88	144	0
XTP	88	144	7
XTP	88	192	0
XTP	88	192	7
TAP	88	336	6
TAP	88	336	7
TAP	89	0	6
TAP	89	0	7
TAP	89	48	6
TAP	89	48	7
TAP	89	144	0
TAP	89	144	1
TAP	89	192	0
TAP	89	192	1
TAP	89	240	0
TAP	89	240	1
TAP	89	336	4
TAP	89	336	6
TAP	90	48	3
TAP	90	48	4
TAP	90	144	1
TAP	90	144	3
XST	90	240	0
SCR	90	240	0	96	96	3
XST	90	240	7
SCL	90	240	7	96	96	4
XTP	91	96	1
XTP	91	96	6
TAP	91	192	2
TAP	91	288	1
TAP	91	288	3
TAP	92	0	5
TAP	92	96	4
TAP	92	96	6
TAP	92	192	0
TAP	92	192	7
TAP	92	240	0
TAP	92	240	7
XTP	92	288	1
XTP	92	288	6
TAP	93	0	3
TAP	93	48	3
TAP	93	96	4
TAP	93	144	4
STR	93	240	2
SCL	93	240	2	96	192	5
TAP	93	240	5
XTP	94	192	3
XTP	94	192	4
BRK	94	288	1
BRK	94	288	6
HLD	95	0	2	96
HLD	95	96	3	96
TAP	95	192	4
TAP	95	288	4
TAP	95	288	5
HLD	96	0	5	96
HLD	96	96	4	96
TAP	96	192	3
TAP	96	288	2
TAP	96	288	3
STR	97	0	1
SCR	97	0	1	96	96	4
STR	97	192	5
SCR	97	192	5	96	96	0
TAP	98	0	1
TAP	98	96	0
TAP	98	96	1
TAP	98	192	2
TAP	98	192	7
TAP	99	0	5
TAP	99	48	5
TAP	99	96	4
TAP	99	192	2
TAP	99	240	2
TAP	99	288	3
TAP	100	0	1
TAP	100	0	4
TAP	100	96	2
TAP	100	96	3
TAP	100	192	4
TAP	100	192	5
TAP	100	288	3
TAP	100	288	6
XHO	101	0	0	96
XHO	101	0	7	96
XHO	101	144	1	96
XHO	101	144	3	96
XHO	101	288	4	96
XHO	101	288	6	96
XST	102	48	2
SLL	102	48	2	96	144	4
XST	102	48	5
SLR	102	48	5	96	144	3
TAP	103	0	2
TAP	103	0	5
STR	103	96	0
SUR	103	96	0	96	96	4
STR	103	96	1
SCR	103	96	1	96	96	4
TAP	104	0	2
TAP	104	0	5
STR	104	96	6
SCL	104	96	6	96	96	3
STR	104	96	7
SUL	104	96	7	96	96	3
TAP	105	0	0
TAP	105	0	1
TAP	105	96	2
TAP	105	96	3
TAP	105	192	4
TAP	105	192	5
TAP	105	288	6
TAP	105	288	7
TAP	106	0	0
TAP	106	0	5
TAP	106	96	1
TAP	106	96	4
TAP	106	192	2
STR	106	192	3
SI_	106	192	3	96	96	7
HLD	107	0	1	96
TAP	107	96	0
HLD	107	192	6	96
TAP	107	288	7
TAP	108	0	4
TAP	108	0	5
TAP	108	96	2
TAP	108	96	3
TAP	108	192	3
TAP	108	192	4
TAP	108	288	1
TAP	108	288	6
XHO	109	0	0	96
XHO	109	0	7	96
XHO	109	144	4	96
XHO	109	144	6	96
XHO	109	288	1	96
XHO	109	288	3	96
XHO	110	48	2	96
XHO	110	48	5	96
TTP	110	192	0	C	1	M1
TTP	110	192	1	B	0	M1
TTP	110	192	2	B	0	M1
TTP	110	192	5	B	0	M1
TTP	110	192	6	B	0	M1
TAP	111	0	0
TAP	111	0	7
TAP	111	48	0
TAP	111	48	7
HLD	111	144	1	96
TAP	111	240	3
HLD	111	336	2	96
TAP	112	48	4
HLD	112	144	3	96
TAP	112	240	4
TAP	112	288	4
TAP	113	0	1
TAP	113	0	6
TAP	113	48	1
TAP	113	48	6
HLD	113	144	4	96
TAP	113	240	3
HLD	113	336	5	96
TAP	114	48	4
HLD	114	144	6	96
TAP	114	240	7
TAP	114	288	7
TAP	115	0	0
TAP	115	0	5
TAP	115	48	0
TAP	115	48	5
STR	115	144	1
SI_	115	144	1	96	48	3
TAP	115	240	4
STR	115	336	6
SI_	115	336	6	96	48	4
TAP	116	48	3
HLD	116	144	1	96
TAP	116	240	0
TAP	116	288	0
TAP	117	0	2
TAP	117	0	7
TAP	117	48	2
TAP	117	48	7
STR	117	144	6
SI_	117	144	6	96	48	4
TAP	117	240	3
STR	117	336	1
SI_	117	336	1	96	48	3
TAP	118	48	4
HLD	118	144	4	96
TAP	118	240	3
XTP	118	288	3
XTP	118	288	4

T_REC_TAP	433
T_REC_BRK	6
T_REC_XTP	32
T_REC_HLD	57
T_REC_XHO	16
T_REC_STR	43
T_REC_BST	0
T_REC_XST	4
T_REC_TTP	17
T_REC_THO	0
T_REC_SLD	47
T_REC_ALL	655
T_NUM_TAP	529
T_NUM_BRK	6
T_NUM_HLD	73
T_NUM_SLD	47
T_NUM_ALL	655
T_JUDGE_TAP	535
T_JUDGE_HLD	210
T_JUDGE_SLD	47
T_JUDGE_ALL	792
TTM_EACHPAIRS	182
TTM_SCR_TAP	264500
TTM_SCR_BRK	15600
TTM_SCR_HLD	73000
TTM_SCR_SLD	70500
TTM_SCR_ALL	423600
TTM_SCR_S	410350
TTM_SCR_SS	423000
TTM_RAT_ACV	10014

