VERSION	0.00.00	1.03.00
FES_MODE	0
BPM_DEF	200.000	200.000	200.000	200.000
MET_DEF	4	4
RESOLUTION	384
CLK_DEF	384
COMPATIBLE_CODE	MA2

BPM	0	0	200.000
MET	0	0	4	4

HLD	2	0	2	384
HLD	3	0	3	384
HLD	4	0	4	384
TAP	5	0	5
HLD	6	0	6	192
TAP	6	192	7
HLD	7	0	1	192
TAP	7	192	0
HLD	8	0	6	192
TAP	8	192	7
HLD	9	0	0	96
HLD	9	0	1	96
TAP	9	192	0
TAP	9	192	1
HLD	10	0	2	192
TAP	10	192	3
HLD	11	0	5	192
TAP	11	192	4
HLD	12	0	2	192
TAP	12	192	3
HLD	13	0	3	96
HLD	13	0	4	96
TAP	13	192	2
TAP	13	192	5
TAP	14	0	6
TAP	14	96	6
TAP	14	192	7
TAP	15	0	1
TAP	15	96	1
TAP	15	192	0
TAP	16	0	6
TAP	16	96	6
TAP	16	192	7
TAP	17	0	0
TAP	17	96	0
TAP	17	192	1
TAP	17	192	7
TAP	18	0	2
TAP	18	96	2
TAP	18	192	3
TAP	19	0	5
TAP	19	96	5
TAP	19	192	4
TAP	20	0	2
TAP	20	96	2
TAP	20	192	3
TAP	21	0	3
TAP	21	0	4
TAP	21	96	3
TAP	21	96	4
BRK	21	192	2
BRK	21	192	5
STR	22	0	6
SI_	22	0	6	96	144	2
STR	23	0	1
SI_	23	0	1	96	144	4
STR	24	0	5
SI_	24	0	5	96	144	0
XTP	25	0	1
XTP	25	96	1
XTP	25	192	0
XTP	25	192	1
STR	26	0	2
SI_	26	0	2	96	144	7
STR	27	0	6
SI_	27	0	6	96	144	2
STR	28	0	1
SI_	28	0	1	96	144	4
XTP	29	0	5
XTP	29	96	5
XTP	29	192	4
XTP	29	192	5
HLD	30	0	6	384
HLD	31	0	7	384
HLD	32	0	0	384
TAP	33	0	1
HLD	34	0	2	384
HLD	35	0	3	384
HLD	36	0	4	384
TAP	37	0	5
TAP	37	192	2
TAP	37	192	5
BRK	38	0	1
TAP	38	96	1
TAP	38	192	0
TAP	38	192	1
TAP	38	288	0
TAP	38	288	1
TAP	39	0	2
TAP	39	96	3
TAP	39	192	2
TAP	39	192	4
TAP	40	0	5
TAP	40	96	5
TAP	40	192	4
TAP	40	192	5
TAP	40	288	4
TAP	40	288	5
TAP	41	0	6
TAP	41	96	7
TAP	41	192	0
TAP	41	192	6
HLD	42	0	1	96
TAP	42	96	0
TAP	42	192	0
HLD	43	0	6	96
TAP	43	96	7
TAP	43	192	7
TAP	44	0	0
TAP	44	96	0
TAP	44	192	7
TAP	44	288	7
STR	45	0	0
SCR	45	0	0	96	144	3
STR	45	0	7
SCL	45	0	7	96	144	4
BRK	46	0	5
TAP	46	96	5
TAP	46	192	4
TAP	46	192	5
TAP	46	288	4
TAP	46	288	5
TAP	47	0	6
TAP	47	96	7
TAP	47	192	0
TAP	47	192	6
TAP	48	0	1
TAP	48	96	1
TAP	48	192	0
TAP	48	192	1
TAP	48	288	0
TAP	48	288	1
TAP	49	0	2
TAP	49	96	3
TAP	49	192	2
TAP	49	192	4
HLD	50	0	5	96
TAP	50	96	4
TAP	50	192	4
HLD	51	0	2	96
TAP	51	96	3
TAP	51	192	3
TAP	52	0	4
TAP	52	96	4
TAP	52	192	3
TAP	52	288	3
STR	53	0	3
SCL	53	0	3	96	144	0
STR	53	0	4
SCR	53	0	4	96	144	7
TTP	54	0	6	B	0	L1
TTP	54	96	5	B	0	L1
TTP	54	192	5	E	0	L1
TTP	55	0	1	B	0	L1
TTP	55	96	2	B	0	L1
TTP	55	192	3	E	0	L1
TTP	56	0	6	E	0	L1
TTP	56	96	5	B	0	L1
TTP	56	192	4	B	0	L1
TTP	57	0	2	E	0	L1
TTP	57	96	2	B	0	L1
TTP	57	192	3	B	0	L1
TTP	58	0	5	E	0	L1
TTP	58	96	5	B	0	L1
TTP	58	192	6	B	0	L1
TTP	59	0	3	E	0	L1
TTP	59	96	2	B	0	L1
TTP	59	192	1	B	0	L1
TTP	60	0	6	B	0	L1
TTP	60	96	7	B	0	L1
TTP	60	192	0	B	0	L1
TTP	60	288	1	B	0	L1
TTP	61	0	0	C	1	L1
XST	62	0	7
SI_	62	0	7	96	144	3
TAP	63	0	2
TAP	63	96	2
TAP	63	192	2
TAP	63	192	3
STR	64	0	1
SI_	64	0	1	96	144	4
TAP	65	0	5
TAP	65	96	5
TAP	65	192	4
TAP	65	192	5
STR	66	0	6
SI_	66	0	6	96	144	3
TAP	67	0	2
TAP	67	96	2
TAP	67	192	2
TAP	67	192	3
STR	68	0	1
SI_	68	0	1	96	144	4
TAP	69	0	5
TAP	69	96	5
TAP	69	192	3
TAP	69	192	4
STR	70	0	5
SCR	70	0	5	96	144	0
TAP	71	0	1
TAP	71	96	1
TAP	71	192	0
TAP	71	192	1
STR	72	0	2
SCL	72	0	2	96	144	7
TAP	73	0	6
TAP	73	96	6
TAP	73	192	6
TAP	73	192	7
STR	74	0	5
SCR	74	0	5	96	144	0
TAP	75	0	1
TAP	75	96	1
TAP	75	192	0
TAP	75	192	1
TAP	76	0	6
TAP	76	96	6
TAP	76	96	7
TAP	76	192	1
TAP	76	288	0
TAP	76	288	1
TAP	77	0	7
TAP	77	96	0
TAP	77	96	7
HLD	77	192	1	192
HLD	77	192	6	192
BRK	79	0	5
TAP	79	96	4
TAP	79	96	5
TAP	79	192	5
TAP	79	288	4
TAP	79	288	5
TAP	80	0	6
TAP	80	96	7
TAP	80	192	0
TAP	80	192	6
TAP	81	0	1
TAP	81	96	0
TAP	81	96	1
TAP	81	192	1
TAP	81	288	0
TAP	81	288	1
TAP	82	0	2
TAP	82	96	3
TAP	82	96	4
TAP	82	192	2
TAP	82	192	5
HLD	83	0	5	96
TAP	83	96	4
TAP	83	192	4
TAP	83	192	5
HLD	84	0	2	96
TAP	84	96	3
TAP	84	192	2
TAP	84	192	3
TAP	85	0	4
TAP	85	96	4
TAP	85	192	3
TAP	85	288	3
STR	86	0	3
SI_	86	0	3	96	144	0
STR	86	0	4
SI_	86	0	4	96	144	7
BRK	87	0	1
TAP	87	96	0
TAP	87	96	1
TAP	87	192	1
TAP	87	288	0
TAP	87	288	1
TAP	88	0	2
TAP	88	96	3
TAP	88	192	2
TAP	88	192	4
TAP	89	0	5
TAP	89	96	4
TAP	89	96	5
TAP	89	192	5
TAP	89	288	4
TAP	89	288	5
TAP	90	0	6
TAP	90	96	7
TAP	90	192	0
TAP	90	192	6
HLD	91	0	1	96
TAP	91	96	0
TAP	91	192	0
TAP	91	192	1
HLD	92	0	6	96
TAP	92	96	7
TAP	92	192	6
TAP	92	192	7
TAP	93	0	0
TAP	93	96	0
TAP	93	192	7
TAP	93	288	7
TAP	94	0	0
TAP	94	0	7
TAP	94	96	0
TAP	94	96	7
BRK	94	192	1
BRK	94	192	6
HLD	95	0	4	96
HLD	95	0	5	96
TAP	95	192	4
TAP	95	192	5
HLD	96	0	2	96
HLD	96	0	3	96
TAP	96	192	2
TAP	96	192	3
TAP	97	0	5
TAP	97	96	5
TAP	97	192	4
TAP	97	288	4
TAP	98	0	3
TAP	98	96	3
TAP	98	192	2
TAP	98	192	4
TAP	99	0	1
TAP	99	96	1
TAP	99	192	0
TAP	99	192	1
TAP	100	0	6
TAP	100	96	6
TAP	100	192	6
TAP	100	192	7
TAP	101	0	5
TAP	101	96	4
TAP	101	192	4
TAP	101	192	5
TAP	101	288	3
TAP	102	0	2
XTP	102	96	1
XTP	102	96	4
HLD	103	0	0	96
HLD	103	0	1	96
TAP	103	192	0
TAP	103	192	1
HLD	104	0	6	96
HLD	104	0	7	96
TAP	104	192	6
TAP	104	192	7
TAP	105	0	1
TAP	105	96	1
TAP	105	192	0
TAP	105	288	0
TAP	106	0	7
TAP	106	96	7
TAP	106	192	0
TAP	106	192	6
TAP	107	0	5
TAP	107	96	5
TAP	107	192	4
TAP	107	192	5
TAP	108	0	2
TAP	108	96	2
TAP	108	192	2
TAP	108	192	3
TAP	109	0	1
TAP	109	96	0
TAP	109	192	0
TAP	109	192	1
TAP	109	288	7
TAP	110	0	6
XTP	110	96	0
XTP	110	96	5
TAP	111	0	6
TAP	111	96	6
TAP	111	192	7
TAP	111	288	7
TAP	112	0	0
TAP	112	96	0
TAP	112	192	1
TAP	112	192	7
TAP	113	0	2
TAP	113	96	2
TAP	113	192	3
TAP	113	288	3
TAP	114	0	4
TAP	114	96	4
TAP	114	192	3
TAP	114	192	4
TAP	115	0	5
TAP	115	96	5
TAP	115	192	4
TAP	115	288	4
TAP	116	0	3
TAP	116	96	3
TAP	116	192	2
TAP	116	192	4
TAP	117	0	1
TAP	117	96	1
TAP	117	192	0
TAP	117	288	0
TAP	118	0	0
TAP	118	0	7
TAP	118	96	0
TAP	118	96	7
TAP	118	192	1
TAP	118	192	6
XTP	118	288	1
XTP	118	288	6

T_REC_TAP	281
T_REC_BRK	8
T_REC_XTP	14
T_REC_HLD	37
T_REC_XHO	0
T_REC_STR	18
T_REC_BST	0
T_REC_XST	1
T_REC_TTP	23
T_REC_THO	0
T_REC_SLD	19
T_REC_ALL	401
T_NUM_TAP	337
T_NUM_BRK	8
T_NUM_HLD	37
T_NUM_SLD	19
T_NUM_ALL	401
T_JUDGE_TAP	345
T_JUDGE_HLD	144
T_JUDGE_SLD	19
T_JUDGE_ALL	508
TTM_EACHPAIRS	82
TTM_SCR_TAP	168500
TTM_SCR_BRK	20800
TTM_SCR_HLD	37000
TTM_SCR_SLD	28500
TTM_SCR_ALL	254800
TTM_SCR_S	246400
TTM_SCR_SS	254000
TTM_RAT_ACV	10031

