VERSION	0.00.00	1.03.00
FES_MODE	0
BPM_DEF	200.000	200.000	200.000	200.000
MET_DEF	4	4
RESOLUTION	384
CLK_DEF	384
COMPATIBLE_CODE	MA2

BPM	0	0	200.000
MET	0	0	4	4

TAP	6	0	0
TAP	7	0	0
TAP	8	0	1
TAP	9	0	1
TAP	10	0	2
TAP	11	0	2
TAP	12	0	3
TAP	13	0	3
TAP	13	0	4
TAP	14	0	4
TAP	15	0	4
TAP	16	0	5
TAP	17	0	5
TAP	18	0	6
TAP	19	0	6
TAP	20	0	7
TAP	21	0	0
TAP	21	0	7
STR	22	0	7
SI_	22	0	7	96	480	4
TAP	25	0	0
STR	26	0	0
SI_	26	0	0	96	480	3
TAP	29	0	7
STR	30	0	7
SI_	30	0	7	96	480	3
TAP	33	0	0
STR	34	0	0
SI_	34	0	0	96	480	4
XTP	37	0	7
BRK	38	0	7
TAP	38	192	7
TAP	39	0	7
TAP	40	0	6
TAP	40	192	6
TAP	41	0	6
TAP	42	0	5
TAP	42	192	5
TAP	43	0	5
TAP	44	0	4
TAP	44	192	4
TAP	45	0	3
TAP	45	0	4
TAP	46	0	3
TAP	46	192	3
TAP	47	0	3
TAP	48	0	2
TAP	48	192	2
TAP	49	0	2
TAP	50	0	1
TAP	50	192	1
TAP	51	0	1
TAP	52	0	0
TAP	52	192	0
TAP	53	0	0
TAP	53	0	7
STR	54	0	7
SI_	54	0	7	96	480	4
TAP	57	0	3
STR	58	0	3
SI_	58	0	3	96	480	0
TAP	61	0	7
TTP	62	0	0	B	0	L1
TTP	63	0	7	B	0	L1
TTP	64	0	1	B	0	L1
TTP	65	0	6	B	0	L1
TTP	66	0	2	B	0	L1
TTP	67	0	5	B	0	L1
TTP	68	0	3	B	0	L1
TTP	69	0	4	B	0	L1
TTP	70	0	5	B	0	L1
TTP	71	0	6	B	0	L1
TTP	72	0	7	B	0	L1
TTP	73	0	0	B	0	L1
TTP	74	0	1	B	0	L1
TTP	75	0	2	B	0	L1
TTP	76	0	3	B	0	L1
THO	77	0	0	384	C	0	L1
XTP	79	0	0
TAP	79	192	0
TAP	80	0	1
TAP	81	0	2
TAP	81	192	2
TAP	82	0	3
TAP	83	0	4
TAP	83	192	4
TAP	84	0	5
TAP	85	0	6
TAP	85	192	6
TAP	86	0	0
TAP	86	0	7
TAP	87	0	7
TAP	87	192	7
TAP	88	0	6
TAP	88	192	6
TAP	89	0	5
TAP	90	0	3
TAP	90	0	4
TAP	91	0	3
TAP	91	192	3
TAP	92	0	2
TAP	92	192	2
TAP	93	0	1
XTP	94	0	0
XTP	94	0	7
HLD	95	0	0	384
HLD	95	0	1	384
HLD	97	0	2	384
HLD	97	0	3	384
HLD	99	0	4	384
HLD	99	0	5	384
HLD	101	0	6	384
HLD	101	0	7	384
TAP	103	0	6
TAP	104	0	6
TAP	104	0	7
TAP	105	0	5
TAP	106	0	4
TAP	106	0	5
TAP	107	0	3
TAP	108	0	2
TAP	108	0	3
TAP	109	0	1
TAP	110	0	0
TAP	110	0	7
HLD	111	0	0	384
HLD	111	0	7	384
HLD	113	0	1	384
HLD	113	0	6	384
TTP	115	0	1	B	0	L1
TTP	115	0	6	B	0	L1
TTP	116	0	2	B	0	L1
TTP	116	0	5	B	0	L1
TTP	117	0	3	B	0	L1
TTP	117	0	4	B	0	L1
THO	118	0	0	288	C	0	L1

T_REC_TAP	84
T_REC_BRK	1
T_REC_XTP	4
T_REC_HLD	12
T_REC_XHO	0
T_REC_STR	6
T_REC_BST	0
T_REC_XST	0
T_REC_TTP	21
T_REC_THO	2
T_REC_SLD	6
T_REC_ALL	136
T_NUM_TAP	115
T_NUM_BRK	1
T_NUM_HLD	14
T_NUM_SLD	6
T_NUM_ALL	136
T_JUDGE_TAP	116
T_JUDGE_HLD	110
T_JUDGE_SLD	6
T_JUDGE_ALL	232
TTM_EACHPAIRS	17
TTM_SCR_TAP	57500
TTM_SCR_BRK	2600
TTM_SCR_HLD	14000
TTM_SCR_SLD	9000
TTM_SCR_ALL	83100
TTM_SCR_S	80550
TTM_SCR_SS	83000
TTM_RAT_ACV	10012

