VERSION	0.00.00	1.03.00
FES_MODE	0
BPM_DEF	106.000	106.000	106.000	106.000
MET_DEF	4	4
RESOLUTION	384
CLK_DEF	384
COMPATIBLE_CODE	MA2

BPM	0	0	106.000
MET	0	0	4	4

HLD	1	0	5	96
TTP	1	96	4	E	0	M1
TAP	1	176	3
TAP	1	192	4
TAP	1	240	4
TTP	1	288	4	E	0	M1
TAP	1	336	3
HLD	2	0	2	96
TTP	2	96	4	E	0	M1
TAP	2	176	4
TAP	2	192	3
TAP	2	240	3
TTP	2	288	4	E	0	M1
XTP	2	336	4
XHO	3	0	5	96
TTP	3	96	4	E	0	M1
TAP	3	176	3
TAP	3	192	4
TAP	3	240	4
TTP	3	288	4	E	0	M1
TAP	3	336	3
HLD	4	0	2	96
TTP	4	96	4	E	0	M1
STR	4	192	1
SI_	4	192	1	96	32	4
STR	4	192	5
SI_	4	192	5	96	32	3
XTP	4	240	6
XTP	4	256	7
XTP	4	272	0
XTP	4	288	1
XTP	4	288	5
TAP	5	0	7
TAP	5	32	7
TAP	5	48	4
TAP	5	80	4
TAP	5	96	6
TAP	5	128	6
TAP	5	144	2
TAP	5	176	2
TAP	5	192	5
TAP	5	224	5
TAP	5	240	3
HLD	5	272	4	16
HLD	5	272	6	16
TAP	5	320	3
TAP	5	320	7
TAP	5	368	4
TAP	6	0	5
TAP	6	32	5
STR	6	48	3
SCL	6	48	3	96	32	0
SCR	6	48	3	96	32	6
TAP	6	80	3
TAP	6	96	4
TAP	6	224	0
TAP	6	240	7
TAP	6	272	7
TAP	6	288	2
TAP	6	320	2
HLD	6	336	4	48
TAP	7	0	0
TAP	7	32	0
TAP	7	48	3
TAP	7	80	3
TAP	7	96	1
TAP	7	128	1
TAP	7	144	5
TAP	7	176	5
TAP	7	192	2
TAP	7	224	2
TAP	7	240	4
HLD	7	272	1	16
HLD	7	272	3	16
TAP	7	320	0
TAP	7	320	4
TAP	7	368	3
TAP	8	0	2
TAP	8	32	2
STR	8	48	4
SV_	8	48	4	96	32	1
SV_	8	48	4	96	32	7
TAP	8	80	4
TAP	8	96	3
TAP	8	224	7
TAP	8	240	0
TAP	8	272	0
TAP	8	288	5
TAP	8	320	5
HLD	8	336	3	48
BRK	9	0	0
TAP	9	368	0
HLD	10	0	7	48
TAP	10	48	1
HLD	10	96	2	48
TAP	10	96	5
TAP	10	128	4
TAP	10	144	4
TAP	10	176	1
TAP	10	176	5
TAP	10	224	4
TAP	10	240	3
STR	10	288	2
SCR	10	288	2	96	48	4
TAP	10	288	5
TAP	10	336	1
TAP	10	368	6
TAP	11	0	6
TAP	11	48	7
STR	11	96	2
SCR	11	96	2	96	48	5
TAP	11	96	5
TAP	11	144	1
TAP	11	176	6
TAP	11	192	6
TAP	11	240	7
TAP	11	288	2
HLD	11	288	5	144
TAP	11	368	3
TAP	12	0	3
HLD	12	48	1	96
TAP	12	80	3
TAP	12	96	3
HLD	12	144	5	96
TAP	12	176	4
STR	12	192	4
SCR	12	192	4	96	32	7
HLD	12	240	2	96
TAP	13	0	1
TAP	13	0	5
TAP	13	48	2
TAP	13	48	6
TAP	13	80	5
TAP	13	96	3
TAP	13	128	2
TAP	13	144	4
TAP	13	176	5
TAP	13	192	4
TAP	13	192	5
TAP	13	224	3
TAP	13	224	6
TAP	13	272	1
TAP	13	288	7
TAP	13	320	6
TAP	13	336	0
TAP	13	368	1
TAP	14	0	7
TAP	14	32	6
TAP	14	48	0
STR	14	80	1
SI_	14	80	1	96	32	5
STR	14	96	7
SI_	14	96	7	96	32	3
TAP	14	128	6
TAP	14	144	0
XTP	14	176	1
XTP	14	192	7
HLD	14	288	2	144
TAP	14	288	5
TAP	14	368	4
TAP	15	0	4
HLD	15	48	6	96
TAP	15	80	4
TAP	15	96	4
HLD	15	144	2	96
TAP	15	176	3
STR	15	192	3
SCL	15	192	3	96	32	0
HLD	15	240	5	96
HLD	16	0	2	48
HLD	16	0	6	48
TAP	16	80	0
TAP	16	96	7
TAP	16	128	7
TAP	16	144	0
TAP	16	176	1
TAP	16	176	6
TAP	16	224	5
TAP	16	240	3
TAP	16	272	2
STR	16	288	4
SXL	16	288	4	96	144	0
TAP	16	320	5
TAP	16	336	3
HLD	17	0	3	672
TTP	17	192	4	E	0	M1
TTP	18	0	3	E	0	M1
TTP	18	192	5	E	0	M1
TAP	18	368	6
XST	19	0	0
SI_	19	0	0	96	32	4
XST	19	48	7
SI_	19	48	7	96	32	3
XST	19	96	0
SI_	19	96	0	96	32	2
XST	19	144	7
SI_	19	144	7	96	32	5
XST	19	192	0
SI_	19	192	0	96	32	4
XST	19	240	7
SI_	19	240	7	96	32	3
XTP	19	288	0
XTP	19	336	7
TAP	20	0	2
XTP	20	32	1
XTP	20	32	3
TAP	20	80	3
TAP	20	88	4
TAP	20	96	3
XTP	20	144	4
XTP	20	144	6
XTP	20	176	4
XTP	20	176	6
BST	20	288	1
SI_	20	288	1	96	32	5
BRK	20	288	5
TAP	21	0	1
STR	21	0	6
SV_	21	0	6	96	32	3
TAP	21	48	7
STR	21	96	2
SI_	21	96	2	96	32	0
TAP	21	96	6
TAP	21	144	1
TAP	21	192	2
STR	21	192	4
SV_	21	192	4	96	32	7
TAP	21	240	5
STR	21	288	1
SCL	21	288	1	96	32	6
TAP	21	288	4
TAP	21	336	2
TAP	22	0	1
STR	22	0	5
SI_	22	0	5	96	32	1
TAP	22	48	4
STR	22	96	0
SI_	22	96	0	96	32	4
TAP	22	96	5
STR	22	144	7
SLL	22	144	7	96	64	3
XTP	22	192	0
XTP	22	240	7
TAP	22	336	2
TAP	23	0	3
STR	23	0	5
SCR	23	0	5	96	96	2
TAP	23	48	2
TAP	23	48	4
TAP	23	80	3
TAP	23	96	3
TAP	23	176	4
TAP	23	192	4
TAP	23	240	3
TAP	23	288	2
TAP	23	288	5
STR	23	336	3
SXR	23	336	3	96	48	3
TAP	23	336	4
STR	24	0	3
SXL	24	0	3	96	48	3
TAP	24	0	4
XTP	24	144	7
STR	24	192	7
SI_	24	192	7	96	32	3
SCL	24	192	7	96	32	4
XTP	24	224	1
XTP	24	224	5
STR	24	288	7
SI_	24	288	7	96	32	1
STR	25	0	2
SI_	25	0	2	96	32	4
TAP	25	0	7
TAP	25	48	3
TAP	25	96	2
STR	25	96	6
SI_	25	96	6	96	32	0
TAP	25	144	7
STR	25	192	2
SI_	25	192	2	96	32	5
TAP	25	192	6
TAP	25	240	3
TAP	25	288	2
STR	25	288	6
SI_	25	288	6	96	32	1
TAP	25	336	7
STR	26	0	2
SCL	26	0	2	96	32	7
TAP	26	0	6
TAP	26	48	3
TAP	26	96	2
STR	26	96	4
SI_	26	96	4	96	32	7
STR	26	144	3
SLL	26	144	3	96	64	7
XTP	26	192	4
XTP	26	240	3
TAP	26	336	0
TAP	27	0	3
TAP	27	0	4
TAP	27	48	5
TAP	27	80	5
STR	27	96	4
SXL	27	96	4	96	96	3
TAP	27	144	3
TAP	27	192	2
TAP	27	240	2
TAP	27	288	2
TAP	27	336	1
TAP	27	336	4
TAP	27	368	1
TAP	27	368	4
TAP	28	32	0
TAP	28	48	7
TAP	28	80	7
TAP	28	96	1
TAP	28	128	1
TAP	28	144	3
TAP	28	176	3
STR	28	192	4
SUL	28	192	4	96	96	3
TAP	28	224	4
TAP	28	240	6
TTP	29	0	0	C	0	M1
TAP	29	96	0
TAP	29	96	7
TAP	29	176	5
STR	29	192	4
SI_	29	192	4	96	32	2
TAP	29	224	4
HLD	29	240	6	48
TAP	29	288	4
HLD	30	0	1	80
HLD	30	0	5	80
TTP	30	96	2	E	0	M1
TTP	30	96	5	E	0	M1
TAP	30	176	2
STR	30	192	3
SI_	30	192	3	96	32	5
TAP	30	224	3
HLD	30	240	1	48
TAP	30	288	3
XTP	30	320	1
HLD	31	0	2	80
HLD	31	0	6	80
TTP	31	96	3	E	0	M1
TTP	31	96	6	E	0	M1
TAP	31	176	5
STR	31	192	4
SI_	31	192	4	96	32	2
TAP	31	224	4
HLD	31	240	6	48
TAP	31	288	4
HLD	32	0	1	48
TAP	32	0	5
TAP	32	48	5
TAP	32	96	2
TAP	32	96	6
TAP	32	144	2
TAP	32	144	6
STR	32	192	3
SCL	32	192	3	96	48	0
STR	32	192	7
SCL	32	192	7	96	48	4
TAP	32	240	1
TAP	32	240	5
HLD	33	0	0	48
TAP	33	0	4
TAP	33	48	3
TAP	33	96	5
TAP	33	128	5
TAP	33	144	3
TAP	33	176	2
TAP	33	176	4
TAP	33	224	2
TAP	33	240	4
TAP	33	272	5
TAP	33	288	3
TAP	33	320	2
TAP	33	320	4
TAP	33	336	2
TAP	33	336	4
TAP	34	0	3
HLD	34	0	7	48
TAP	34	48	4
TAP	34	96	2
TAP	34	128	2
TAP	34	144	4
TAP	34	176	3
TAP	34	176	5
TAP	34	224	6
TAP	34	240	4
TAP	34	272	1
STR	34	288	3
SCL	34	288	3	96	32	0
SCR	34	288	3	96	32	6
XTP	34	320	2
XTP	34	320	4
XTP	34	336	2
XTP	34	336	4
TAP	35	80	7
TAP	35	96	0
TAP	35	128	0
TAP	35	144	7
TAP	35	176	7
TAP	35	192	6
TAP	35	224	6
TAP	35	240	5
TAP	35	272	5
TAP	35	288	4
TAP	35	320	4
TAP	35	336	3
TAP	35	368	3
TAP	36	0	2
TAP	36	32	2
TAP	36	48	1
TAP	36	80	1
TAP	36	96	0
TAP	36	128	0
TAP	36	144	7
TAP	36	176	7
TAP	36	192	6
TAP	36	240	3
TAP	36	240	4
TAP	36	288	2
TAP	36	320	2
TAP	36	320	4
TAP	37	0	3
HLD	37	0	6	80
TAP	37	80	0
TAP	37	96	7
TAP	37	128	7
TAP	37	144	1
TAP	37	176	1
TAP	37	192	0
TAP	37	224	0
TAP	37	240	2
TAP	37	272	2
STR	37	288	5
SCL	37	288	5	96	32	3
STR	38	0	7
SCL	38	0	7	96	32	5
TAP	38	48	0
STR	38	96	1
SCL	38	96	1	96	32	7
TAP	38	144	2
STR	38	192	3
SCL	38	192	3	96	32	1
TAP	38	240	4
TAP	38	288	5
TAP	38	336	5
TAP	39	0	2
TAP	39	0	4
TAP	39	48	2
TAP	39	48	4
TAP	39	96	2
TAP	39	96	4
TAP	39	144	2
TAP	39	144	4
HLD	39	192	1	32
HLD	39	192	5	32
HLD	39	240	1	32
HLD	39	240	5	32
HLD	39	288	1	32
HLD	39	288	5	32
HLD	39	336	1	32
HLD	39	336	5	32
BRK	40	0	0
TAP	40	32	5
TAP	40	48	4
TAP	40	80	4
TAP	40	96	3
TAP	40	96	5
BRK	40	144	7
TAP	40	176	2
TAP	40	192	3
TAP	40	224	3
TAP	40	240	2
TAP	40	240	4
TAP	40	272	5
TAP	40	288	4
TAP	40	288	6
TAP	40	320	2
HLD	40	336	1	48
TAP	40	336	3
TTP	41	0	0	C	0	M1
TTP	41	240	4	B	0	M1
TTP	41	256	5	B	0	M1
TTP	41	272	3	B	0	M1
TTP	41	288	2	B	0	M1
HLD	42	0	6	384
TTP	42	96	4	E	0	M1
TTP	42	288	4	E	0	M1
HLD	43	0	1	384
TTP	43	96	4	E	0	M1
TTP	43	288	4	E	0	M1
TAP	44	0	4
TAP	44	48	4
TAP	44	96	2
TAP	44	96	5
TAP	44	144	2
TAP	44	144	5
TAP	44	192	1
TAP	44	192	6
TAP	44	240	1
TAP	44	240	6
STR	44	288	3
SI_	44	288	3	96	32	0
STR	44	288	4
SI_	44	288	4	96	32	7
TAP	44	336	0
TAP	44	336	7
TAP	45	176	0
TAP	45	192	7
BRK	45	224	2
BRK	45	224	6
TAP	45	272	4
STR	45	288	3
SCL	45	288	3	96	32	0
BRK	45	320	1
BRK	45	320	5
TAP	46	0	3
STR	46	0	6
SV_	46	0	6	96	32	3
TAP	46	48	7
STR	46	96	2
SXL	46	96	2	96	32	4
TAP	46	144	1
TAP	46	192	2
STR	46	192	6
SCR	46	192	6	96	32	1
TAP	46	240	7
STR	46	288	3
SI_	46	288	3	96	32	1
TAP	46	288	6
TAP	46	336	4
TAP	47	0	3
STR	47	0	5
SI_	47	0	5	96	48	2
TAP	47	48	4
STR	47	96	0
SI_	47	96	0	96	32	4
TAP	47	96	5
STR	47	144	7
SLL	47	144	7	96	64	3
XTP	47	192	0
XTP	47	240	7
TAP	47	336	2
TAP	48	0	3
TAP	48	0	4
TAP	48	48	6
TAP	48	80	6
HLD	48	96	5	32
HLD	48	96	7	32
HLD	48	144	0	32
HLD	48	144	6	32
HLD	48	192	1	32
HLD	48	192	7	32
HLD	48	240	0	32
HLD	48	240	2	32
HLD	48	288	1	32
HLD	48	288	3	32
TAP	48	336	1
TAP	48	336	3
TAP	48	368	0
TAP	49	0	7
TAP	49	32	7
TAP	49	48	1
TAP	49	80	1
TAP	49	96	3
TAP	49	128	3
TAP	49	144	4
TAP	49	176	4
TAP	49	192	5
TAP	49	224	3
HLD	49	224	6	48
TAP	49	272	1
TAP	49	288	1
STR	49	288	5
SCR	49	288	5	96	64	2
TAP	49	336	3
TAP	50	0	3
STR	50	48	4
SI_	50	48	4	96	32	1
TAP	50	96	5
STR	50	144	6
SI_	50	144	6	96	32	3
TAP	50	192	7
STR	50	240	0
SI_	50	240	0	96	32	5
TAP	50	288	1
STR	50	336	2
SI_	50	336	2	96	32	7
TAP	51	0	3
TAP	51	48	4
STR	51	96	4
SI_	51	96	4	96	32	1
SI_	51	96	4	96	32	7
TAP	51	144	3
TAP	51	144	5
XTP	51	192	4
TAP	51	288	5
STR	51	336	4
SI_	51	336	4	96	32	7
TAP	52	0	3
STR	52	48	2
SI_	52	48	2	96	32	5
TAP	52	96	1
TAP	52	144	0
STR	52	192	0
SCL	52	192	0	96	32	5
SCR	52	192	0	96	32	3
TAP	52	240	1
TAP	52	240	7
TAP	53	0	2
HLD	53	0	6	48
HLD	53	48	4	48
HLD	53	96	3	48
HLD	53	144	1	48
TTP	53	192	0	C	1	M1
TTP	53	192	3	B	0	M1
TTP	53	192	4	B	0	M1
STR	53	288	7
SCL	53	288	7	96	64	2
TAP	53	336	7
TAP	54	0	1
STR	54	48	0
SI_	54	48	0	96	32	5
TAP	54	96	1
STR	54	144	2
SI_	54	144	2	96	32	7
TAP	54	192	3
STR	54	240	4
SI_	54	240	4	96	32	1
TAP	54	288	5
STR	54	336	6
SI_	54	336	6	96	32	3
TAP	55	0	7
TAP	55	48	0
STR	55	96	0
SUL	55	96	0	96	32	3
SUR	55	96	0	96	32	5
TAP	55	144	1
TAP	55	144	7
HLD	55	288	1	48
TAP	55	288	7
HLD	55	336	3	48
HLD	56	0	4	48
HLD	56	48	6	48
STR	56	96	0
SCL	56	96	0	96	48	4
SCR	56	96	0	96	96	0
TAP	56	144	0
XTP	56	192	0
TAP	56	368	2
TAP	57	0	3
TAP	57	32	3
TAP	57	80	5
TAP	57	96	4
TAP	57	128	4
TAP	57	144	6
TAP	57	176	3
TAP	57	176	7
TAP	57	224	1
TAP	57	224	5
TAP	57	272	2
TAP	57	272	6
STR	57	288	2
SI_	57	288	2	96	32	4
STR	57	288	6
SI_	57	288	6	96	32	3
TAP	57	336	1
TAP	57	352	0
TAP	57	368	7
BRK	58	0	2
BRK	58	0	6

T_REC_TAP	381
T_REC_BRK	10
T_REC_XTP	32
T_REC_HLD	63
T_REC_XHO	1
T_REC_STR	70
T_REC_BST	1
T_REC_XST	6
T_REC_TTP	27
T_REC_THO	0
T_REC_SLD	85
T_REC_ALL	676
T_NUM_TAP	516
T_NUM_BRK	11
T_NUM_HLD	64
T_NUM_SLD	85
T_NUM_ALL	676
T_JUDGE_TAP	527
T_JUDGE_HLD	216
T_JUDGE_SLD	85
T_JUDGE_ALL	828
TTM_EACHPAIRS	106
TTM_SCR_TAP	258000
TTM_SCR_BRK	28600
TTM_SCR_HLD	64000
TTM_SCR_SLD	127500
TTM_SCR_ALL	478100
TTM_SCR_S	462700
TTM_SCR_SS	477000
TTM_RAT_ACV	10023

