VERSION	0.00.00	1.03.00
FES_MODE	0
BPM_DEF	106.000	106.000	106.000	106.000
MET_DEF	4	4
RESOLUTION	384
CLK_DEF	384
COMPATIBLE_CODE	MA2

BPM	0	0	106.000
MET	0	0	4	4

HLD	1	0	2	96
TAP	1	96	3
HLD	1	192	5	96
TAP	1	240	4
TAP	1	288	4
HLD	2	0	2	96
TAP	2	96	4
TAP	2	192	3
HLD	2	192	5	144
TAP	2	336	3
HLD	3	0	2	96
TAP	3	96	3
HLD	3	192	5	96
TAP	3	240	4
TAP	3	288	4
HLD	4	0	2	96
TAP	4	96	3
TAP	4	144	4
TAP	4	192	5
TTP	4	288	3	E	0	M1
TTP	4	288	4	E	0	M1
TTP	4	288	5	E	0	M1
TAP	5	0	0
TAP	5	48	0
TAP	5	96	6
TAP	5	96	7
TAP	5	144	5
TAP	5	192	3
TAP	5	192	4
TAP	5	240	2
TAP	5	288	1
TAP	5	288	3
TAP	5	336	0
TAP	5	336	2
TAP	6	0	1
TAP	6	0	3
TAP	6	48	4
TAP	6	96	3
TAP	6	96	5
TAP	6	144	6
TAP	6	192	1
TAP	6	192	7
TAP	6	240	2
TAP	6	288	3
TAP	6	288	6
TAP	6	336	3
TAP	6	336	6
TAP	7	0	7
TAP	7	48	7
TAP	7	96	0
TAP	7	96	1
TAP	7	144	2
TAP	7	192	3
TAP	7	192	4
TAP	7	240	5
TAP	7	288	4
TAP	7	288	6
TAP	7	336	5
TAP	7	336	7
TAP	8	0	4
TAP	8	0	6
TAP	8	48	3
TAP	8	96	2
TAP	8	96	4
TAP	8	144	1
TAP	8	192	0
TAP	8	192	6
TAP	8	240	5
HLD	8	288	3	96
HLD	8	288	4	96
XTP	9	240	2
XTP	9	240	5
TAP	9	336	5
TAP	10	0	3
HLD	10	0	6	384
TAP	10	96	5
TAP	10	192	4
TAP	10	240	4
TAP	10	288	5
HLD	11	0	4	384
TAP	11	96	5
TAP	11	192	6
TAP	11	240	6
TAP	11	288	5
HLD	12	0	6	240
TAP	12	96	5
TAP	12	192	4
TAP	12	240	4
TAP	12	288	3
TAP	12	288	5
HLD	13	0	1	384
TAP	13	0	4
TAP	13	96	2
TAP	13	192	3
TAP	13	240	3
TAP	13	288	2
HLD	14	0	3	384
TAP	14	96	2
TAP	14	192	1
TAP	14	240	1
TAP	14	288	2
HLD	15	0	1	240
TAP	15	96	2
TAP	15	192	3
TAP	15	240	3
TAP	15	288	2
TAP	15	288	4
TAP	16	0	6
TAP	16	48	5
TAP	16	96	4
TAP	16	144	3
TAP	16	192	2
TAP	16	240	1
TAP	16	288	0
TAP	16	336	7
BST	17	0	1
SCL	17	0	1	96	480	5
BST	17	0	6
SCR	17	0	6	96	480	2
TAP	18	288	3
TAP	18	288	4
TAP	19	0	4
TAP	19	48	4
TAP	19	96	3
TAP	19	144	3
TAP	19	192	3
TAP	19	192	4
TAP	19	240	3
TAP	19	240	4
TAP	19	288	3
TAP	19	288	4
TAP	19	336	2
TAP	19	336	5
BRK	20	0	1
BRK	20	0	6
XTP	20	240	2
XTP	20	240	5
XTP	20	288	2
XTP	20	288	5
TAP	21	0	2
TAP	21	0	3
TAP	21	48	1
TAP	21	48	2
TAP	21	96	0
TAP	21	96	7
TAP	21	144	4
TAP	21	144	5
TAP	21	192	5
TAP	21	192	6
TAP	21	240	0
TAP	21	240	7
TAP	21	288	2
TAP	21	288	3
TAP	21	336	1
TAP	21	336	2
TAP	22	0	0
TAP	22	0	7
TAP	22	48	4
TAP	22	48	5
TAP	22	96	5
TAP	22	96	6
TAP	22	144	0
TAP	22	144	7
TAP	22	192	2
TAP	22	192	3
BRK	22	240	1
BRK	22	240	4
TAP	22	336	4
TAP	22	336	5
STR	23	0	4
SI_	23	0	4	96	48	0
STR	23	0	5
SI_	23	0	5	96	48	0
STR	23	192	2
SI_	23	192	2	96	48	7
STR	23	192	3
SI_	23	192	3	96	48	7
TAP	23	240	2
TAP	23	240	3
TAP	24	0	3
TAP	24	0	4
STR	24	48	5
SCR	24	48	5	96	96	2
TAP	24	96	5
BRK	24	288	0
TAP	25	0	4
TAP	25	0	5
TAP	25	48	5
TAP	25	48	6
TAP	25	96	0
TAP	25	96	7
TAP	25	144	2
TAP	25	144	3
TAP	25	192	1
TAP	25	192	2
TAP	25	240	0
TAP	25	240	7
TAP	25	288	4
TAP	25	288	5
TAP	25	336	5
TAP	25	336	6
TAP	26	0	0
TAP	26	0	7
TAP	26	48	2
TAP	26	48	3
TAP	26	96	1
TAP	26	96	2
TAP	26	144	0
TAP	26	144	7
TAP	26	192	4
TAP	26	192	5
BRK	26	240	3
BRK	26	240	6
TAP	26	336	2
TAP	26	336	3
STR	27	0	2
SI_	27	0	2	96	48	7
STR	27	0	3
SI_	27	0	3	96	48	7
STR	27	192	4
SI_	27	192	4	96	48	0
STR	27	192	5
SI_	27	192	5	96	48	0
TAP	27	240	4
TAP	27	240	5
TAP	28	0	2
TAP	28	48	1
TAP	28	48	3
TAP	28	96	5
TAP	28	144	4
TAP	28	144	6
STR	28	192	3
SCL	28	192	3	96	48	0
STR	28	192	7
SCL	28	192	7	96	48	4
TAP	28	240	3
TAP	28	240	7
BRK	29	0	1
BRK	29	0	5
TTP	29	96	1	E	0	M1
TTP	29	144	0	E	0	M1
TTP	29	192	7	E	0	M1
TTP	29	288	4	B	0	M1
TTP	29	288	5	E	0	M1
TTP	30	0	0	C	0	M1
TTP	30	96	7	E	0	M1
TTP	30	144	0	E	0	M1
TTP	30	192	1	E	0	M1
TTP	30	288	3	B	0	M1
TTP	30	288	3	E	0	M1
TTP	31	0	0	C	0	M1
TTP	31	96	1	E	0	M1
TTP	31	144	0	E	0	M1
TTP	31	192	7	E	0	M1
TTP	31	288	4	B	0	M1
TTP	31	288	5	E	0	M1
TTP	32	0	0	E	0	M1
TTP	32	48	1	E	0	M1
TTP	32	96	2	E	0	M1
TTP	32	144	3	E	0	M1
THO	32	192	0	96	C	0	M1
TAP	33	0	0
HLD	33	0	6	384
TAP	33	96	5
TAP	33	192	4
TAP	33	240	4
TAP	33	288	5
HLD	34	0	4	384
TAP	34	96	5
TAP	34	192	6
TAP	34	240	6
TAP	34	288	5
HLD	35	0	7	240
TAP	35	96	5
TAP	35	192	4
TAP	35	240	4
TAP	35	288	3
TAP	35	288	6
TAP	36	0	5
TAP	36	48	5
TAP	36	96	4
TAP	36	144	4
TAP	36	192	3
HLD	36	240	2	48
HLD	36	240	4	48
HLD	37	0	1	384
TAP	37	0	3
TAP	37	96	2
TAP	37	192	3
TAP	37	240	3
TAP	37	288	2
HLD	38	0	3	96
TAP	38	96	2
TAP	38	192	1
TAP	38	192	3
TAP	38	240	2
TAP	38	240	4
TAP	38	288	3
TAP	38	288	5
TAP	38	336	4
TAP	38	336	6
TAP	39	0	7
TAP	39	48	0
TAP	39	48	7
TAP	39	96	1
TAP	39	144	0
TAP	39	144	1
TAP	39	192	6
TAP	39	240	6
TAP	39	240	7
TAP	39	288	0
TAP	39	336	1
TAP	39	336	7
TAP	40	0	2
TAP	40	0	3
TAP	40	48	4
TAP	40	48	5
TAP	40	96	6
TAP	40	96	7
TAP	40	144	0
TAP	40	144	1
TAP	40	192	2
TAP	40	192	3
TAP	40	240	4
TAP	40	240	5
TAP	40	288	6
TAP	40	288	7
TAP	40	336	0
BRK	41	0	1
BRK	41	0	5
XTP	41	240	3
XTP	41	240	4
XTP	41	288	3
XTP	41	288	4
STR	42	0	3
SXR	42	0	3	96	192	4
STR	43	0	4
SXL	43	0	4	96	192	3
TAP	44	0	0
TAP	44	0	7
TAP	44	48	0
TAP	44	48	7
TAP	44	96	1
TAP	44	96	6
TAP	44	144	1
TAP	44	144	6
TAP	44	192	2
TAP	44	192	5
TAP	44	240	2
TAP	44	240	5
STR	44	288	3
SI_	44	288	3	96	48	0
TAP	44	288	4
BRK	45	192	3
BRK	45	192	4
BRK	45	288	1
BRK	45	288	6
TAP	46	0	4
TAP	46	0	5
TAP	46	48	2
TAP	46	48	4
TAP	46	96	0
TAP	46	96	1
TAP	46	144	2
TAP	46	144	3
TAP	46	192	3
TAP	46	192	5
TAP	46	240	6
TAP	46	240	7
TAP	46	288	4
TAP	46	288	5
TAP	46	336	2
TAP	46	336	4
TAP	47	0	0
TAP	47	0	1
TAP	47	48	2
TAP	47	48	3
TAP	47	96	3
TAP	47	96	5
TAP	47	144	6
TAP	47	144	7
TAP	47	192	4
TAP	47	192	5
BRK	47	240	3
BRK	47	240	6
TAP	47	336	0
TAP	47	336	1
STR	48	0	0
SI_	48	0	0	96	48	4
STR	48	0	1
SI_	48	0	1	96	48	4
STR	48	192	6
SI_	48	192	6	96	48	3
STR	48	192	7
SI_	48	192	7	96	48	3
TAP	48	240	6
TAP	48	240	7
STR	49	0	0
SI_	49	0	0	96	48	3
TAP	49	48	0
XST	49	96	4
SI_	49	96	4	96	48	7
XTP	49	144	4
XTP	49	192	3
TAP	49	288	2
TAP	49	288	6
TAP	49	336	1
TAP	49	336	7
STR	50	0	1
SCL	50	0	1	96	48	6
TAP	50	0	7
XTP	50	144	5
XST	50	192	5
SCL	50	192	5	96	48	2
XTP	50	336	1
XHO	51	0	1	96
TAP	51	48	0
TAP	51	96	0
TAP	51	144	1
TAP	51	144	7
TAP	51	192	2
TAP	51	192	6
TAP	51	288	3
TAP	51	288	4
TAP	51	336	3
TAP	51	336	4
TAP	52	0	2
TAP	52	48	1
TAP	52	48	3
TAP	52	96	0
TAP	52	144	1
TAP	52	144	7
TAP	52	192	2
TAP	52	240	3
TAP	52	240	4
TAP	52	288	5
TAP	52	336	4
TAP	52	336	5
TAP	53	0	4
TAP	53	0	5
TAP	53	48	7
STR	53	96	2
SI_	53	96	2	96	48	7
STR	53	96	3
SI_	53	96	3	96	48	6
TAP	53	144	2
TAP	53	144	3
TAP	53	288	0
TAP	53	288	5
TAP	53	336	6
STR	54	0	6
SCL	54	0	6	96	48	3
TAP	54	144	0
STR	54	192	0
SCR	54	192	0	96	48	3
HLD	54	336	5	96
XTP	55	0	4
HLD	55	48	2	96
TAP	55	96	3
HLD	55	144	6	48
STR	55	192	4
SI_	55	192	4	96	48	0
TAP	55	288	7
STR	56	0	2
SI_	56	0	2	96	48	7
STR	56	0	6
SI_	56	0	6	96	48	3
TAP	56	192	1
TAP	56	192	5
TAP	56	240	2
TAP	56	240	6
TAP	56	288	3
STR	56	288	7
SCR	56	288	7	96	192	6
XTP	57	288	0
XTP	57	288	7
TTP	58	0	0	C	1	M1
TTP	58	0	2	B	0	M1
TTP	58	0	2	E	0	M1
TTP	58	0	5	B	0	M1
TTP	58	0	6	E	0	M1

T_REC_TAP	327
T_REC_BRK	17
T_REC_XTP	17
T_REC_HLD	25
T_REC_XHO	1
T_REC_STR	28
T_REC_BST	2
T_REC_XST	2
T_REC_TTP	29
T_REC_THO	1
T_REC_SLD	32
T_REC_ALL	481
T_NUM_TAP	403
T_NUM_BRK	19
T_NUM_HLD	27
T_NUM_SLD	32
T_NUM_ALL	481
T_JUDGE_TAP	422
T_JUDGE_HLD	206
T_JUDGE_SLD	32
T_JUDGE_ALL	660
TTM_EACHPAIRS	143
TTM_SCR_TAP	201500
TTM_SCR_BRK	49400
TTM_SCR_HLD	27000
TTM_SCR_SLD	48000
TTM_SCR_ALL	325900
TTM_SCR_S	314300
TTM_SCR_SS	324000
TTM_RAT_ACV	10058

