VERSION	0.00.00	1.03.00
FES_MODE	0
BPM_DEF	106.000	106.000	106.000	106.000
MET_DEF	4	4
RESOLUTION	384
CLK_DEF	384
COMPATIBLE_CODE	MA2

BPM	0	0	106.000
MET	0	0	4	4

TAP	1	0	3
TAP	1	96	3
TAP	1	192	3
TAP	1	192	4
TAP	2	0	5
TAP	2	96	5
TAP	2	192	4
TAP	2	192	5
TAP	3	0	2
TAP	3	96	2
TAP	3	192	2
TAP	3	192	3
TAP	4	0	4
TAP	4	96	4
BRK	4	192	2
BRK	4	192	5
TAP	5	0	5
TAP	5	96	5
TAP	5	192	4
TAP	5	288	4
TAP	6	0	3
TAP	6	96	3
TAP	6	192	2
TAP	6	192	4
TAP	7	0	1
TAP	7	96	1
TAP	7	192	0
TAP	7	288	0
TAP	8	0	7
TAP	8	96	7
TAP	8	192	1
TAP	8	192	6
STR	9	0	5
SCL	9	0	5	96	144	2
TAP	10	0	2
TAP	10	96	2
TAP	10	192	3
TAP	10	288	3
TAP	11	0	4
TAP	11	0	5
TAP	11	96	4
TAP	11	96	5
HLD	11	192	3	96
HLD	11	192	6	96
TAP	12	0	2
TAP	12	96	2
TAP	12	192	1
TAP	12	192	3
TAP	13	0	5
TAP	13	96	5
TAP	13	192	4
TAP	13	288	4
TAP	14	0	2
TAP	14	0	3
TAP	14	96	2
TAP	14	96	3
HLD	14	192	1	96
HLD	14	192	4	96
TAP	15	0	5
TAP	15	96	5
TAP	15	192	4
TAP	15	192	6
TAP	16	0	7
TAP	16	96	0
TAP	16	96	7
TAP	16	192	1
TAP	16	192	6
TTP	17	0	2	E	0	L1
TTP	17	192	3	E	0	L1
TTP	18	0	4	E	0	L1
TTP	18	192	5	E	0	L1
HLD	19	0	4	48
HLD	19	0	6	48
TAP	19	96	4
TAP	19	96	6
HLD	19	192	1	48
HLD	19	192	3	48
TAP	19	288	1
TAP	19	288	3
HLD	20	0	0	96
TAP	20	96	7
XTP	20	144	7
BRK	21	0	6
TAP	21	96	6
TAP	21	96	7
TAP	21	192	1
TAP	21	288	0
TAP	21	288	1
TAP	22	0	2
TAP	22	96	2
TAP	22	96	3
TAP	22	192	1
TAP	22	192	4
HLD	23	0	5	96
TAP	23	96	4
HLD	23	192	2	96
TAP	23	288	3
HLD	24	0	5	96
STR	24	96	4
SI_	24	96	4	96	96	0
BRK	25	0	1
TAP	25	96	0
TAP	25	96	1
TAP	25	192	6
TAP	25	288	6
TAP	25	288	7
TAP	26	0	5
TAP	26	96	4
TAP	26	96	5
TAP	26	192	3
TAP	26	192	6
HLD	27	0	2	96
TAP	27	96	3
HLD	27	192	5	96
TAP	27	288	4
TAP	28	0	3
TAP	28	0	5
TAP	28	96	2
TAP	28	96	4
TAP	28	192	1
TAP	28	192	6
STR	28	288	0
SI_	28	288	0	96	96	4
STR	28	288	7
SI_	28	288	7	96	96	3
STR	30	0	6
SI_	30	0	6	96	144	2
STR	31	0	1
SI_	31	0	1	96	144	5
TAP	32	0	6
TAP	32	96	6
TAP	32	192	0
TAP	32	192	7
TTP	33	0	2	E	0	L1
TTP	33	96	2	B	0	L1
TTP	33	192	3	B	0	L1
TTP	34	0	6	E	0	L1
TTP	34	96	5	B	0	L1
TTP	34	192	4	B	0	L1
TTP	35	0	1	B	0	L1
TTP	35	96	2	B	0	L1
TTP	35	192	3	B	0	L1
TTP	35	288	4	B	0	L1
TTP	36	0	5	B	0	L1
TTP	36	96	6	B	0	L1
TTP	36	192	7	B	0	L1
TTP	37	0	2	E	0	L1
TTP	37	96	1	B	0	L1
TTP	37	192	0	B	0	L1
TTP	38	0	5	B	0	L1
TTP	38	96	6	B	0	L1
TTP	38	192	7	E	0	L1
XTP	39	0	0
XTP	39	0	7
XTP	39	96	0
XTP	39	96	7
TAP	39	192	1
TAP	39	192	6
TAP	39	288	1
TAP	39	288	6
TAP	40	0	2
TAP	40	0	5
TAP	40	96	2
TAP	40	96	5
HLD	40	192	3	96
HLD	40	192	4	96
TTP	41	0	0	C	1	L1
HLD	42	0	5	192
HLD	42	192	4	192
HLD	43	0	3	192
XTP	43	192	2
TAP	44	0	3
TAP	44	0	4
TAP	44	96	2
TAP	44	96	5
TAP	44	192	1
TAP	44	192	6
STR	44	288	0
SI_	44	288	0	96	144	3
STR	44	288	7
SI_	44	288	7	96	144	4
TAP	45	288	3
TAP	45	288	4
BRK	46	0	2
TAP	46	96	0
TAP	46	96	1
TAP	46	192	6
TAP	46	288	6
TAP	46	288	7
TAP	47	0	5
TAP	47	96	4
TAP	47	96	5
TAP	47	192	3
TAP	47	192	6
HLD	48	0	2	96
TAP	48	96	3
HLD	48	192	5	96
TAP	48	288	4
TAP	49	0	3
TAP	49	0	5
TAP	49	96	2
TAP	49	96	4
XTP	49	192	1
XTP	49	192	6
TAP	50	0	6
TAP	50	96	6
TAP	50	96	7
TAP	50	192	6
TAP	50	288	6
TAP	50	288	7
TAP	51	0	5
TAP	51	96	4
TAP	51	192	3
TAP	51	288	2
TAP	52	0	1
TAP	52	96	0
TAP	52	96	1
TAP	52	192	1
TAP	52	288	0
TAP	52	288	1
TAP	53	0	2
TAP	53	96	3
TAP	53	96	4
TAP	53	192	2
TAP	53	192	5
TAP	54	0	5
TAP	54	96	4
TAP	54	96	5
TAP	54	192	5
TAP	54	288	4
TAP	54	288	5
TAP	55	0	6
TAP	55	96	7
TAP	55	192	0
TAP	55	288	1
TAP	56	0	2
TAP	56	96	2
TAP	56	96	3
TAP	56	192	3
TAP	56	192	4
STR	56	288	3
SXR	56	288	3	96	288	0
STR	56	288	4
SXL	56	288	4	96	288	7
BRK	58	0	1
BRK	58	0	6

T_REC_TAP	166
T_REC_BRK	7
T_REC_XTP	8
T_REC_HLD	21
T_REC_XHO	0
T_REC_STR	10
T_REC_BST	0
T_REC_XST	0
T_REC_TTP	24
T_REC_THO	0
T_REC_SLD	10
T_REC_ALL	246
T_NUM_TAP	208
T_NUM_BRK	7
T_NUM_HLD	21
T_NUM_SLD	10
T_NUM_ALL	246
T_JUDGE_TAP	215
T_JUDGE_HLD	88
T_JUDGE_SLD	10
T_JUDGE_ALL	313
TTM_EACHPAIRS	64
TTM_SCR_TAP	104000
TTM_SCR_BRK	18200
TTM_SCR_HLD	21000
TTM_SCR_SLD	15000
TTM_SCR_ALL	158200
TTM_SCR_S	152800
TTM_SCR_SS	157500
TTM_RAT_ACV	10044

