VERSION	0.00.00	1.03.00
FES_MODE	0
BPM_DEF	235.000	235.000	235.000	235.000
MET_DEF	4	4
RESOLUTION	384
CLK_DEF	384
COMPATIBLE_CODE	MA2

BPM	0	0	235.000
MET	0	0	4	4

TAP	2	0	3
TAP	2	0	4
TAP	2	96	3
TAP	2	96	4
TAP	2	192	3
TAP	2	192	4
TAP	2	288	3
TAP	2	288	4
XHO	3	0	5	96
HLD	3	144	4	96
XHO	3	144	6	96
TAP	3	288	4
XTP	3	288	6
XHO	4	0	2	96
XHO	4	144	1	96
HLD	4	144	3	96
XTP	4	288	1
TAP	4	288	3
XHO	5	0	4	96
HLD	5	144	3	96
XHO	5	144	5	96
XTP	5	288	3
TAP	5	288	5
TTP	6	0	3	B	0	M1
TTP	6	96	1	B	0	M1
TTP	6	192	7	B	0	M1
TTP	6	288	5	B	0	M1
XHO	7	0	3	96
XHO	7	144	2	96
HLD	7	144	4	96
TAP	7	288	2
XTP	7	288	4
XHO	8	0	5	96
XTP	8	144	4
HLD	8	144	6	96
TAP	8	240	3
TAP	8	288	3
TAP	8	336	4
XHO	9	0	2	96
XHO	9	144	1	96
HLD	9	144	3	96
XST	9	288	0
SSL	9	288	0	96	288	4
HLD	9	288	4	96
TAP	11	0	5
HLD	11	48	5	96
HLD	11	144	4	96
TAP	11	240	6
STR	11	288	6
SCL	11	288	6	96	48	4
TAP	12	0	2
HLD	12	48	2	96
HLD	12	144	3	96
TAP	12	240	1
STR	12	288	1
SCR	12	288	1	96	48	3
TAP	13	0	5
HLD	13	48	5	96
HLD	13	144	4	96
TAP	13	240	6
STR	13	288	6
SCL	13	288	6	96	48	4
TAP	14	0	3
STR	14	96	0
SCR	14	96	0	96	48	2
TAP	14	192	3
TAP	14	288	5
TAP	15	0	6
HLD	15	48	6	96
HLD	15	144	4	96
TAP	15	240	5
STR	15	288	5
SCL	15	288	5	96	48	3
TAP	16	0	1
HLD	16	48	1	96
HLD	16	144	3	96
TAP	16	240	2
TAP	16	288	2
TAP	16	336	3
TAP	17	0	1
HLD	17	48	1	96
TAP	17	144	3
TAP	17	240	3
TAP	17	240	4
STR	17	288	2
SI_	17	288	2	96	48	4
STR	17	288	5
SI_	17	288	5	96	48	3
XTP	18	0	2
XTP	18	0	5
TAP	18	192	2
TAP	18	192	5
TAP	18	288	2
TAP	18	288	5
HLD	19	0	4	96
TAP	19	96	3
TAP	19	144	3
TAP	19	192	5
TAP	19	288	4
TAP	19	288	6
HLD	20	0	3	96
TAP	20	96	4
TAP	20	144	4
TAP	20	192	2
TAP	20	288	1
TAP	20	288	3
TAP	21	0	0
TTP	21	96	4	B	0	M1
TTP	21	96	6	E	0	M1
TAP	21	192	1
TTP	21	288	4	E	0	M1
TTP	21	288	5	B	0	M1
TAP	22	0	2
TAP	22	96	1
TAP	22	144	1
TAP	22	192	3
TAP	22	288	2
TAP	22	288	4
HLD	23	0	3	96
TAP	23	96	6
TAP	23	144	6
TAP	23	192	4
TAP	23	288	3
TAP	23	288	5
HLD	24	0	2	96
TAP	24	96	3
TAP	24	144	3
TAP	24	192	1
STR	24	288	1
SI_	24	288	1	96	48	3
TAP	24	288	4
XTP	25	0	4
TAP	25	96	4
TAP	25	96	5
TAP	25	192	6
TAP	25	240	6
TAP	25	288	4
TAP	25	336	4
XTP	26	0	3
XTP	26	0	5
XTP	26	48	3
XTP	26	48	5
XTP	26	96	3
XTP	26	96	5
XHO	26	144	3	144
XTP	26	144	5
STR	26	288	5
SI_	26	288	5	96	96	2
XTP	27	0	3
TAP	27	96	1
TAP	27	144	1
HLD	27	192	3	96
STR	27	288	2
SI_	27	288	2	96	96	5
TAP	28	0	4
TAP	28	96	6
TAP	28	144	6
HLD	28	192	4	96
STR	28	288	5
SI_	28	288	5	96	96	2
TAP	29	0	3
TAP	29	96	1
TAP	29	144	1
HLD	29	192	3	96
TAP	29	288	2
TAP	30	0	2
XTP	30	0	4
TAP	30	96	3
TAP	30	96	5
TAP	30	144	3
TAP	30	144	5
TAP	30	240	6
STR	30	288	6
SI_	30	288	6	96	96	3
BRK	31	0	4
TAP	31	96	2
TAP	31	144	2
HLD	31	192	3	96
XST	31	288	1
SI_	31	288	1	96	96	4
TAP	32	0	3
TAP	32	96	5
TAP	32	144	5
HLD	32	192	4	96
TAP	32	288	6
BRK	33	0	5
TAP	33	48	5
TAP	33	96	4
TAP	33	144	4
TAP	33	192	5
TAP	33	240	5
TAP	33	288	3
TAP	33	336	3
XTP	34	0	2
XTP	34	0	6
XST	34	48	2
SV_	34	48	2	96	48	7
XST	34	48	6
SV_	34	48	6	96	48	3
HLD	35	0	0	96
TAP	35	96	3
HLD	35	144	3	96
TAP	35	240	2
HLD	35	288	2	96
TTP	36	0	3	B	0	M1
TTP	36	0	4	E	0	M1
TTP	36	64	1	B	0	M1
TTP	36	64	2	E	0	M1
TTP	36	128	0	C	0	M1
XTP	36	192	0
HLD	37	0	7	96
TAP	37	96	4
HLD	37	144	4	96
TAP	37	240	5
HLD	37	288	5	96
TTP	38	0	4	B	0	M1
TTP	38	0	4	E	0	M1
TTP	38	64	6	B	0	M1
TTP	38	64	6	E	0	M1
TTP	38	128	0	C	0	M1
XTP	38	192	7
TAP	39	0	6
TAP	39	48	6
TAP	39	96	4
HLD	39	144	5	96
TAP	39	240	7
HLD	39	288	7	96
TTP	40	0	5	B	0	M1
TTP	40	0	6	E	0	M1
TTP	40	64	0	B	0	M1
TTP	40	64	0	E	0	M1
TTP	40	128	3	B	0	M1
TTP	40	128	4	E	0	M1
TTP	40	192	0	C	0	M1
TAP	40	288	0
TAP	40	288	7
XHO	41	0	1	288
TAP	41	0	6
TAP	41	288	3
TAP	41	336	2
TAP	42	0	3
XHO	42	0	7	288
TAP	42	288	2
TAP	42	336	2
XTP	43	0	6
XTP	43	32	4
XTP	43	64	5
XTP	43	96	1
XTP	43	128	3
XTP	43	160	2
XTP	43	192	4
XTP	43	224	3
XTP	43	256	4
XTP	43	288	3
XTP	43	320	4
XTP	43	352	3
TTP	44	0	0	C	0	M1
TTP	44	0	1	B	0	M1
TTP	44	0	2	B	0	M1
TTP	44	0	2	E	0	M1
TTP	44	0	3	B	0	M1
TTP	44	0	4	B	0	M1
TTP	44	0	4	E	0	M1
TTP	44	0	5	B	0	M1
TTP	44	0	6	B	0	M1
TTP	44	0	6	E	0	M1
BRK	45	0	4
STR	45	0	5
SI_	45	0	5	96	48	7
TAP	45	96	0
STR	45	192	2
SI_	45	192	2	96	48	0
TAP	45	192	3
TAP	45	288	7
TAP	46	0	3
STR	46	0	5
SCR	46	0	5	96	96	0
STR	46	96	0
SUL	46	96	0	96	96	4
TAP	46	192	4
TAP	46	288	0
STR	47	0	3
SCL	47	0	3	96	48	0
XTP	47	0	5
TAP	47	96	7
TAP	47	192	2
STR	47	192	4
SCR	47	192	4	96	48	7
TAP	47	288	0
TAP	48	0	2
TAP	48	0	3
TAP	48	96	0
TAP	48	96	7
BRK	48	192	1
BRK	48	192	5
TAP	49	0	2
TAP	49	0	4
TAP	49	48	2
TAP	49	48	4
STR	49	96	3
SI_	49	96	3	96	48	7
STR	49	192	5
SI_	49	192	5	96	48	0
TAP	49	288	1
STR	49	336	1
SCR	49	336	1	96	48	4
TAP	50	48	7
HLD	50	96	7	96
HLD	50	192	4	96
STR	50	288	3
SI_	50	288	3	96	48	7
BRK	51	0	0
TTP	51	4	0	C	1	M1
XTP	51	144	1
TAP	51	240	2
TAP	51	240	6
STR	51	288	2
SV_	51	288	2	96	48	7
STR	51	288	6
SV_	51	288	6	96	48	3
TTP	52	0	0	C	1	M1
XTP	52	144	1
XTP	52	144	5
TAP	52	240	7
TAP	52	288	7
HLD	53	0	2	48
HLD	53	48	3	48
HLD	53	96	4	48
HLD	53	144	5	48
HLD	53	192	1	48
HLD	53	240	3	48
HLD	53	288	4	48
STR	53	336	6
SCR	53	336	6	96	48	1
TAP	54	48	3
STR	54	96	3
SI_	54	96	3	96	48	7
STR	54	192	5
SI_	54	192	5	96	48	1
HLD	54	288	2	96
BST	55	0	7
SI_	55	0	7	96	48	2
STR	55	96	3
SI_	55	96	3	96	48	7
TAP	55	192	4
TAP	55	288	6
XHO	55	336	6	336
TTP	56	96	3	B	0	M1
TTP	56	96	4	B	0	M1
TTP	56	192	1	B	0	M1
TTP	56	192	2	E	0	M1
STR	56	288	7
SI_	56	288	7	96	48	3
TAP	57	0	5
BRK	57	0	7
STR	57	96	7
SI_	57	96	7	96	48	3
TAP	57	192	1
BRK	57	192	7
STR	57	288	7
SI_	57	288	7	96	48	3
TAP	58	0	5
BRK	58	0	7
STR	58	96	7
SF_	58	96	7	96	48	3
BRK	58	192	7
XTP	58	336	1
XTP	58	336	5
XST	59	0	1
SCR	59	0	1	96	48	3
XST	59	0	5
SCR	59	0	5	96	48	7
XTP	59	192	0
XTP	59	192	4
TAP	59	288	7
TAP	59	336	7
XTP	60	48	0
XTP	60	48	6
XTP	60	96	0
XTP	60	96	6
XTP	60	144	0
XTP	60	144	6
BRK	60	192	1
BRK	60	192	5
XHO	60	336	3	240
XHO	60	336	4	2544
TAP	62	192	3
TAP	63	192	2
TAP	64	192	3
TAP	65	192	2
TAP	66	192	3
XTP	67	0	5
XTP	67	192	5
TAP	67	336	5
TAP	67	360	4
TAP	68	0	5
TAP	68	96	3
TAP	68	96	4
TAP	68	192	3
TAP	68	240	3
TAP	68	288	3
TAP	68	288	4
XHO	69	0	5	384
TAP	69	96	3
TAP	69	192	4
TAP	69	288	3
TAP	69	336	3
XHO	70	0	2	384
TAP	70	96	4
TAP	70	192	3
TAP	70	288	4
TAP	70	336	4
XHO	71	0	5	384
TAP	71	96	3
TAP	71	192	4
TAP	71	288	3
TAP	71	336	3
XHO	72	0	2	384
TAP	72	96	4
TAP	72	192	3
TAP	72	288	4
TAP	72	336	4
XHO	73	0	5	384
TAP	73	96	3
TAP	73	192	4
TAP	73	288	3
TAP	73	336	3
XHO	74	0	2	384
TAP	74	96	4
TAP	74	192	3
TAP	74	288	4
TAP	74	336	4
XHO	75	0	5	288
TAP	75	96	3
TAP	75	192	4
TAP	75	288	3
TAP	75	336	3
XTP	76	0	4
TAP	76	48	4
TAP	76	96	3
TAP	76	144	3
TAP	76	192	4
TAP	76	240	2
TAP	76	288	5
TAP	76	336	4
BRK	77	0	3
TAP	77	48	2
TAP	77	96	4
TAP	77	144	4
TAP	77	192	1
TAP	77	240	2
TAP	77	288	7
TAP	77	336	6
BRK	78	0	2
TAP	78	48	3
TAP	78	96	6
TAP	78	144	5
TAP	78	192	2
TAP	78	240	1
TAP	78	288	7
TAP	78	336	7
BRK	79	0	3
TAP	79	48	5
TAP	79	96	1
TAP	79	144	1
TAP	79	192	3
TAP	79	240	4
TAP	79	288	2
TAP	79	336	1
BRK	80	0	4
TAP	80	48	5
TAP	80	96	0
TAP	80	144	1
TAP	80	192	6
TAP	80	240	5
TAP	80	288	3
TAP	80	336	4
TAP	81	0	2
STR	81	48	2
SI_	81	48	2	96	48	4
TAP	81	144	7
STR	81	192	6
SI_	81	192	6	96	48	3
TAP	81	288	2
STR	81	336	2
SI_	81	336	2	96	48	4
TAP	82	48	7
HLD	82	96	6	96
TAP	82	192	4
TAP	82	240	7
TAP	82	288	0
TAP	82	336	1
TAP	83	0	2
STR	83	48	2
SI_	83	48	2	96	48	4
TAP	83	144	7
STR	83	192	6
SI_	83	192	6	96	48	3
TAP	83	288	0
STR	83	336	1
SI_	83	336	1	96	48	4
TAP	84	48	4
TAP	84	96	5
TAP	84	144	6
TAP	84	192	7
TAP	84	240	0
TAP	84	288	1
HLD	84	336	2	1584
BST	84	336	7
SI_	84	336	7	96	1488	4
STR	94	288	0
SI_	94	288	0	96	48	4
STR	94	288	1
SI_	94	288	1	96	48	4
TTP	95	8	0	C	1	M1
TTP	95	8	1	B	0	M1
TTP	95	8	2	B	0	M1
TTP	95	8	2	E	0	M1
TTP	95	8	3	B	0	M1
TTP	95	8	4	E	0	M1
XTP	95	144	0
XTP	95	144	7
STR	95	288	6
SI_	95	288	6	96	48	3
STR	95	288	7
SI_	95	288	7	96	48	3
TTP	96	4	6	B	0	M1
TTP	96	5	6	E	0	M1
TTP	96	7	0	C	1	M1
TTP	96	8	5	B	0	M1
TTP	96	9	4	B	0	M1
TTP	96	10	4	E	0	M1
XTP	96	144	0
XTP	96	240	1
XTP	96	240	7
XTP	96	288	1
XTP	96	288	7
STR	97	0	3
SCL	97	0	3	96	96	7
TAP	97	0	5
STR	97	96	7
SUL	97	96	7	96	96	3
STR	97	192	3
SUL	97	192	3	96	96	7
TAP	97	288	7
STR	98	0	4
SCR	98	0	4	96	96	0
STR	98	96	0
SUR	98	96	0	96	96	4
STR	98	192	4
SUR	98	192	4	96	96	0
TAP	98	288	0
HLD	99	0	2	96
TAP	99	96	3
TAP	99	144	3
TAP	99	192	2
STR	99	240	1
SCR	99	240	1	96	48	4
TAP	99	240	5
BRK	99	336	1
HLD	99	336	7	144
TTP	100	96	5	B	0	M1
TTP	100	96	5	E	0	M1
TTP	100	192	1	B	0	M1
TTP	100	192	2	E	0	M1
STR	100	288	6
SI_	100	288	6	96	48	4
STR	100	288	7
SI_	100	288	7	96	48	3
BRK	101	0	6
BRK	101	0	7
STR	101	96	0
SI_	101	96	0	96	48	3
STR	101	96	7
SI_	101	96	7	96	48	4
BRK	101	192	0
BRK	101	192	7
STR	101	288	0
SI_	101	288	0	96	48	4
STR	101	288	1
SI_	101	288	1	96	48	3
BRK	102	0	0
BRK	102	0	1
STR	102	96	7
SF_	102	96	7	96	48	3
BRK	102	192	7
TAP	102	336	1
TAP	102	336	5
HLD	103	0	1	96
STR	103	0	5
SCL	103	0	5	96	48	2
TAP	103	192	0
TAP	103	192	7
TAP	103	288	2
TAP	103	288	5
TAP	103	336	2
TAP	103	336	5
TAP	104	48	0
TAP	104	48	1
HLD	104	96	2	96
TAP	104	96	7
TAP	104	192	4
TAP	104	240	4
STR	104	288	1
SI_	104	288	1	96	48	3
STR	104	288	5
SXL	104	288	5	96	576	3
BRK	105	0	1
BRK	106	192	0
TAP	106	336	1
TAP	106	336	7
STR	107	0	2
SI_	107	0	2	96	48	7
STR	107	0	6
SI_	107	0	6	96	48	3
TAP	107	96	2
TAP	107	96	6
TAP	107	192	0
TAP	107	288	1
TAP	107	288	7
TAP	107	336	1
TAP	107	336	7
TAP	108	48	3
TAP	108	48	5
TAP	108	96	3
TAP	108	96	5
TAP	108	144	3
TAP	108	144	5
BRK	108	192	2
BRK	108	192	6
TAP	109	0	1
TAP	109	48	1
TAP	109	96	3
HLD	109	144	2	96
TAP	109	240	7
TAP	109	288	2
TAP	109	288	7
TAP	110	0	6
TAP	110	48	6
TAP	110	96	4
HLD	110	144	5	96
TAP	110	240	0
TAP	110	288	0
TAP	110	288	5
TAP	111	0	1
TAP	111	48	1
TAP	111	96	3
HLD	111	144	2	96
TAP	111	240	7
TAP	111	288	2
TAP	111	288	7
TAP	112	0	3
STR	112	0	6
SI_	112	0	6	96	48	2
TAP	112	96	0
STR	112	192	1
SI_	112	192	1	96	48	5
TAP	112	192	4
TAP	112	288	7
TAP	113	0	6
TAP	113	48	6
TAP	113	96	4
HLD	113	144	5	96
TAP	113	240	0
TAP	113	288	0
TAP	113	288	5
TAP	114	0	2
TAP	114	48	2
TAP	114	96	3
STR	114	144	1
SI_	114	144	1	96	48	3
TAP	114	240	4
TAP	114	288	4
TAP	114	336	4
TAP	115	0	2
TAP	115	48	3
TAP	115	96	1
TAP	115	144	5
TAP	115	192	4
TAP	115	240	6
HLD	115	288	0	96
TTP	116	0	0	B	0	M1
TTP	116	96	6	B	0	M1
TTP	116	192	2	B	0	M1
TAP	116	288	3
TAP	116	288	4
TAP	117	0	5
TAP	117	48	5
TAP	117	96	4
TAP	117	144	7
TAP	117	192	6
TAP	117	240	4
TAP	117	288	3
TAP	117	288	5
TAP	118	0	2
TAP	118	48	2
TAP	118	96	3
TAP	118	144	0
TAP	118	192	1
TAP	118	240	3
TAP	118	288	2
TAP	118	288	4
TAP	119	0	6
TAP	119	48	6
TAP	119	96	4
TAP	119	144	5
TAP	119	192	3
TAP	119	240	2
TAP	119	288	1
TAP	119	288	4
TAP	119	336	5
STR	120	0	3
SI_	120	0	3	96	48	7
TAP	120	0	6
TAP	120	96	4
TAP	120	192	0
STR	120	192	6
SI_	120	192	6	96	48	2
TAP	120	288	3
TAP	121	0	1
TAP	121	48	1
TAP	121	96	3
TAP	121	144	2
TAP	121	192	6
TAP	121	240	5
TAP	121	288	3
TAP	121	336	2
TAP	122	0	4
TAP	122	48	4
TAP	122	96	3
TAP	122	144	5
TAP	122	192	0
TAP	122	240	7
TAP	122	288	7
TAP	122	336	7
TAP	123	0	1
TAP	123	48	1
TAP	123	96	3
TAP	123	144	2
TAP	123	192	7
TAP	123	240	7
TAP	123	288	0
TAP	123	288	6
TAP	124	0	2
TAP	124	0	5
TAP	124	96	2
TAP	124	96	5
TAP	124	144	0
TAP	124	168	7
TAP	124	192	0
TAP	124	240	1
TAP	124	240	6
XTP	124	288	1
XTP	124	288	6
TTP	125	0	0	C	0	M1
TTP	125	0	1	B	0	M1
TTP	125	0	2	B	0	M1
TTP	125	0	2	E	0	M1
TTP	125	0	3	B	0	M1
TTP	125	0	4	B	0	M1
TTP	125	0	4	E	0	M1
TTP	125	0	5	B	0	M1
TTP	125	0	6	B	0	M1
TTP	125	0	6	E	0	M1
TAP	125	144	0
TAP	125	144	7
STR	125	288	1
SI_	125	288	1	96	48	4
STR	125	288	6
SI_	125	288	6	96	48	3
XTP	126	0	1
XTP	126	0	6
TTP	126	8	0	C	0	M1
TTP	126	8	2	B	0	M1
TTP	126	8	3	B	0	M1
TTP	126	8	4	B	0	M1
TTP	126	8	4	E	0	M1
TTP	126	8	5	B	0	M1
TAP	126	144	0
TAP	126	144	7
STR	126	288	1
SI_	126	288	1	96	48	4
STR	126	288	6
SI_	126	288	6	96	48	3
XTP	127	0	1
XTP	127	0	6
TTP	127	4	0	C	0	M1
TTP	127	4	3	B	0	M1
TTP	127	4	4	B	0	M1
TTP	127	4	4	E	0	M1
TAP	127	144	2
TAP	127	144	5
STR	127	288	0
SSL	127	288	0	96	288	4
TTP	128	0	0	C	0	M1

T_REC_TAP	385
T_REC_BRK	28
T_REC_XTP	63
T_REC_HLD	56
T_REC_XHO	24
T_REC_STR	71
T_REC_BST	2
T_REC_XST	6
T_REC_TTP	81
T_REC_THO	0
T_REC_SLD	79
T_REC_ALL	795
T_NUM_TAP	606
T_NUM_BRK	30
T_NUM_HLD	80
T_NUM_SLD	79
T_NUM_ALL	795
T_JUDGE_TAP	636
T_JUDGE_HLD	293
T_JUDGE_SLD	79
T_JUDGE_ALL	1008
TTM_EACHPAIRS	120
TTM_SCR_TAP	303000
TTM_SCR_BRK	78000
TTM_SCR_HLD	80000
TTM_SCR_SLD	118500
TTM_SCR_ALL	579500
TTM_SCR_S	559250
TTM_SCR_SS	576500
TTM_RAT_ACV	10052

