VERSION	0.00.00	1.03.00
FES_MODE	0
BPM_DEF	235.000	235.000	235.000	235.000
MET_DEF	4	4
RESOLUTION	384
CLK_DEF	384
COMPATIBLE_CODE	MA2

BPM	0	0	235.000
MET	0	0	4	4

HLD	3	0	2	96
HLD	3	0	4	96
HLD	3	144	2	96
HLD	3	144	4	96
TAP	3	288	2
TAP	3	288	4
HLD	4	0	3	96
HLD	4	0	5	96
HLD	4	144	3	96
HLD	4	144	5	96
TAP	4	288	3
TAP	4	288	5
HLD	5	0	2	96
HLD	5	0	4	96
HLD	5	144	2	96
HLD	5	144	4	96
TAP	5	288	2
TAP	5	288	4
HLD	6	0	3	96
HLD	6	0	5	96
TAP	6	192	2
TAP	6	192	6
HLD	7	0	1	96
HLD	7	0	3	96
HLD	7	144	1	96
HLD	7	144	3	96
TAP	7	288	1
TAP	7	288	3
HLD	8	0	4	96
HLD	8	0	6	96
HLD	8	144	4	96
HLD	8	144	6	96
TAP	8	288	4
TAP	8	288	6
HLD	9	0	1	96
HLD	9	0	3	96
HLD	9	144	1	96
HLD	9	144	3	96
TAP	9	288	1
TAP	9	288	3
HLD	10	0	4	96
HLD	10	0	6	96
BRK	10	192	3
BRK	10	192	7
TAP	11	0	2
TAP	11	0	4
TAP	11	96	1
TAP	11	192	0
TAP	11	192	7
TAP	11	288	6
TAP	12	0	3
TAP	12	0	5
TAP	12	96	6
TAP	12	192	0
TAP	12	192	7
TAP	12	288	1
TAP	13	0	2
TAP	13	0	4
TAP	13	96	1
TAP	13	192	0
TAP	13	192	7
TAP	13	288	6
TAP	14	0	3
TAP	14	0	5
TAP	14	96	2
BRK	14	192	1
BRK	14	192	4
TAP	15	0	0
TAP	15	0	6
TAP	15	96	5
TAP	15	192	3
TAP	15	192	4
TAP	15	288	2
TAP	16	0	0
TAP	16	0	1
TAP	16	96	2
TAP	16	192	3
TAP	16	192	4
TAP	16	288	5
TAP	17	0	6
TAP	17	0	7
TAP	17	96	5
TAP	17	192	3
TAP	17	192	4
TAP	17	288	2
HLD	18	0	1	96
HLD	18	0	5	96
BRK	18	192	3
BRK	18	192	7
TAP	19	0	1
STR	19	96	1
SI_	19	96	1	96	96	3
TAP	20	0	6
STR	20	96	6
SI_	20	96	6	96	96	4
TAP	21	0	2
TAP	21	96	2
TAP	21	192	4
TAP	21	288	3
TAP	22	0	5
STR	22	96	2
SCR	22	96	2	96	96	5
TAP	23	0	6
STR	23	96	6
SI_	23	96	6	96	96	4
TAP	24	0	1
STR	24	96	1
SI_	24	96	1	96	96	3
TAP	25	0	5
TAP	25	96	5
TAP	25	192	3
TAP	25	288	4
XTP	26	0	3
XTP	26	0	5
XTP	26	96	2
XTP	26	96	6
TAP	27	0	5
STR	27	96	5
SI_	27	96	5	96	96	7
TAP	28	0	2
STR	28	96	2
SI_	28	96	2	96	96	0
TAP	29	0	6
TAP	29	96	6
TAP	29	192	0
TAP	29	288	7
TAP	30	0	1
STR	30	96	6
SCR	30	96	6	96	96	1
TAP	31	0	2
STR	31	96	2
SI_	31	96	2	96	96	0
TAP	32	0	5
STR	32	96	5
SI_	32	96	5	96	96	7
TAP	33	0	1
TAP	33	96	1
TAP	33	192	7
TAP	33	288	0
XTP	34	0	0
XTP	34	0	7
XTP	34	96	1
XTP	34	96	6
HLD	35	0	6	192
HLD	35	192	5	192
XTP	36	0	4
XTP	36	64	4
XTP	36	128	3
XTP	36	192	5
HLD	37	0	1	192
HLD	37	192	2	192
XTP	38	0	3
XTP	38	64	3
XTP	38	128	4
XTP	38	192	2
HLD	39	0	6	192
HLD	39	192	5	192
XTP	40	0	4
XTP	40	64	4
XTP	40	128	3
XTP	40	192	5
STR	40	288	3
SCL	40	288	3	96	288	6
BRK	41	0	6
STR	42	0	4
SCR	42	0	4	96	288	1
THO	43	0	0	384	C	1	M1
TAP	45	0	6
TAP	45	0	7
TAP	45	96	5
HLD	45	192	2	144
TAP	45	192	4
HLD	45	336	1	144
HLD	46	96	0	96
TAP	46	192	7
TAP	46	288	6
TAP	47	0	4
TAP	47	0	5
TAP	47	96	6
TAP	47	192	1
TAP	47	192	7
TAP	47	288	2
TAP	47	336	3
TAP	48	48	5
TAP	48	96	4
BRK	48	192	3
BRK	48	192	6
TAP	49	0	2
TAP	49	0	4
TAP	49	96	1
TAP	49	192	0
HLD	49	192	6	144
HLD	49	336	5	144
HLD	50	96	4	96
TAP	50	192	2
TAP	50	288	1
XST	51	0	0
SI_	51	0	0	96	144	4
XST	51	0	7
SI_	51	0	7	96	144	3
XST	52	0	3
SCL	52	0	3	96	144	0
XST	52	0	4
SCR	52	0	4	96	144	7
TAP	53	0	0
TAP	53	0	7
TAP	53	96	6
TAP	53	192	3
TAP	53	192	5
TAP	53	288	2
TAP	53	336	3
TAP	54	48	5
TAP	54	96	4
TAP	54	192	3
TAP	54	192	6
TAP	54	288	5
TAP	55	0	3
TAP	55	0	4
TAP	55	96	2
STR	55	192	1
SCR	55	192	1	96	288	0
TAP	55	192	4
TTP	55	336	0	C	1	M1
TTP	57	0	5	E	0	M1
TTP	57	96	6	E	0	M1
TTP	57	192	3	E	0	M1
TTP	57	288	2	E	0	M1
XST	58	0	5
SCL	58	0	5	96	96	2
TAP	59	0	0
TAP	59	0	7
TAP	59	96	1
TAP	59	96	6
STR	59	192	2
SI_	59	192	2	96	96	0
STR	59	192	5
SI_	59	192	5	96	96	7
XTP	60	96	0
XTP	60	96	7
XTP	60	192	0
XHO	60	192	7	144
TTP	60	336	0	C	1	M1
TTP	60	336	4	B	0	M1
TTP	62	192	4	E	0	M1
HLD	63	0	5	576
TTP	63	192	5	E	0	M1
TTP	64	192	4	E	0	M1
HLD	65	0	2	576
TTP	65	192	3	E	0	M1
TTP	66	192	4	E	0	M1
TTP	67	0	5	E	0	M1
TTP	67	192	3	E	0	M1
TAP	68	0	3
TAP	68	0	4
TAP	68	96	3
TAP	68	96	4
BRK	68	192	2
BRK	68	192	5
STR	69	0	3
SXR	69	0	3	96	192	2
STR	70	0	5
SXL	70	0	5	96	192	6
STR	71	0	1
SXL	71	0	1	96	192	2
STR	72	0	7
SXR	72	0	7	96	192	6
STR	73	0	3
SXR	73	0	3	96	240	3
STR	74	0	4
SXL	74	0	4	96	240	4
STR	75	0	0
SXL	75	0	0	96	240	0
STR	76	0	7
SXR	76	0	7	96	240	7
STR	77	0	1
SCR	77	0	1	96	144	4
HLD	77	192	5	192
STR	78	0	4
SUL	78	0	4	96	144	0
STR	79	0	6
SCL	79	0	6	96	144	3
HLD	79	192	2	192
STR	80	0	3
SUR	80	0	3	96	144	7
STR	81	0	1
SI_	81	0	1	96	96	4
TAP	81	192	0
STR	82	0	6
SI_	82	0	6	96	96	3
TAP	82	192	7
STR	83	0	1
SI_	83	0	1	96	96	4
TAP	83	192	0
HLD	84	0	7	192
TAP	84	192	0
BST	84	288	0
SI_	84	288	0	96	768	3
BRK	84	288	7
THO	89	0	0	1920	C	0	M1
HLD	95	0	7	144
TAP	95	144	0
TAP	95	288	1
TAP	95	288	6
STR	96	0	1
SI_	96	0	1	96	144	5
STR	96	0	6
SI_	96	0	6	96	144	2
BRK	97	0	0
BRK	97	0	7
TAP	97	96	1
TAP	97	192	2
TAP	97	192	4
TAP	97	288	5
TAP	97	336	4
TAP	98	48	6
TAP	98	96	7
TAP	98	192	0
TAP	98	192	7
TAP	98	288	1
TAP	99	0	2
TAP	99	0	4
TAP	99	96	3
TAP	99	96	5
XTP	99	192	4
XTP	99	192	6
XST	99	240	4
SCL	99	240	4	96	240	5
XTP	99	240	6
TTP	99	336	0	C	1	M1
TTP	101	0	1	E	0	M1
TTP	101	96	2	E	0	M1
TTP	101	192	7	E	0	M1
TTP	101	288	6	E	0	M1
TTP	102	0	3	E	0	M1
TTP	102	0	5	E	0	M1
TTP	102	96	2	B	0	M1
TTP	102	96	5	B	0	M1
TTP	102	192	1	B	0	M1
TTP	102	192	6	B	0	M1
XTP	103	0	0
XTP	103	0	7
TAP	103	96	1
TAP	103	96	6
TAP	103	192	2
STR	103	192	5
SCL	103	192	5	96	96	2
TAP	104	96	0
TAP	104	96	7
TAP	104	192	1
HLD	104	192	5	192
TTP	105	0	0	C	1	M1
TAP	106	0	0
TAP	106	0	7
TAP	106	192	1
STR	106	192	6
SSR	106	192	6	96	336	2
XTP	108	96	1
XTP	108	96	5
BRK	108	192	1
BRK	108	192	5
XHO	109	0	6	144
HLD	109	144	5	144
TAP	109	288	4
HLD	110	0	1	144
HLD	110	144	2	144
TAP	110	288	3
HLD	111	0	6	144
HLD	111	144	5	144
TAP	111	288	4
TTP	112	0	3	E	0	M1
TTP	112	96	4	E	0	M1
TTP	112	192	5	E	0	M1
XHO	113	0	5	144
HLD	113	144	6	144
TAP	113	288	7
HLD	114	0	2	144
HLD	114	144	1	144
TAP	114	288	0
HLD	115	0	5	144
HLD	115	144	6	144
TAP	115	288	7
TTP	116	0	1	E	0	M1
TTP	116	96	0	E	0	M1
TTP	116	192	7	E	0	M1
TAP	117	0	4
TAP	117	0	5
TAP	117	96	6
TAP	117	192	0
TAP	117	192	7
TAP	117	288	1
TAP	118	0	2
TAP	118	0	3
TAP	118	96	1
TAP	118	192	0
TAP	118	192	7
TAP	118	288	6
TAP	119	0	4
TAP	119	0	5
TAP	119	96	6
TAP	119	192	0
TAP	119	192	7
TAP	119	288	1
HLD	120	0	2	96
HLD	120	0	4	96
HLD	120	192	3	96
HLD	120	192	5	96
TAP	121	0	6
TAP	121	0	7
TAP	121	96	5
TAP	121	192	3
TAP	121	192	4
TAP	121	288	2
TAP	122	0	0
TAP	122	0	1
TAP	122	96	2
TAP	122	192	3
TAP	122	192	4
TAP	122	288	5
TAP	123	0	6
TAP	123	0	7
TAP	123	96	5
TAP	123	192	3
TAP	123	192	4
TAP	123	288	2
HLD	124	0	1	96
HLD	124	0	7	96
HLD	124	192	0	96
HLD	124	192	6	96
HLD	125	0	2	96
HLD	125	0	4	96
HLD	125	144	2	96
HLD	125	144	4	96
TAP	125	288	2
TAP	125	288	4
HLD	126	0	3	96
HLD	126	0	5	96
HLD	126	144	3	96
HLD	126	144	5	96
TAP	126	288	3
TAP	126	288	5
HLD	127	0	2	96
HLD	127	0	4	96
HLD	127	144	2	96
HLD	127	144	4	96
TAP	127	288	2
TAP	127	288	4
TTP	128	0	6	E	0	M1
TTP	128	96	5	E	0	M1
TTP	128	192	2	E	0	M1
TTP	128	288	3	E	0	M1

T_REC_TAP	202
T_REC_BRK	16
T_REC_XTP	30
T_REC_HLD	79
T_REC_XHO	3
T_REC_STR	34
T_REC_BST	1
T_REC_XST	6
T_REC_TTP	36
T_REC_THO	2
T_REC_SLD	41
T_REC_ALL	450
T_NUM_TAP	308
T_NUM_BRK	17
T_NUM_HLD	84
T_NUM_SLD	41
T_NUM_ALL	450
T_JUDGE_TAP	325
T_JUDGE_HLD	270
T_JUDGE_SLD	41
T_JUDGE_ALL	636
TTM_EACHPAIRS	108
TTM_SCR_TAP	154000
TTM_SCR_BRK	44200
TTM_SCR_HLD	84000
TTM_SCR_SLD	61500
TTM_SCR_ALL	343700
TTM_SCR_S	331750
TTM_SCR_SS	342000
TTM_RAT_ACV	10049

