VERSION	0.00.00	1.03.00
FES_MODE	0
BPM_DEF	235.000	235.000	235.000	235.000
MET_DEF	4	4
RESOLUTION	384
CLK_DEF	384
COMPATIBLE_CODE	MA2

BPM	0	0	235.000
MET	0	0	4	4

TTP	3	0	2	B	0	L1
TTP	3	0	3	B	0	L1
TTP	4	0	4	B	0	L1
TTP	4	0	5	B	0	L1
TTP	5	0	6	B	0	L1
TTP	5	0	7	B	0	L1
TTP	6	0	0	B	0	L1
TTP	6	0	1	B	0	L1
TTP	7	0	3	E	0	L1
TTP	7	0	5	E	0	L1
TTP	8	0	2	B	0	L1
TTP	8	0	5	B	0	L1
TTP	9	0	1	B	0	L1
TTP	9	0	6	B	0	L1
TTP	10	0	1	E	0	L1
TTP	10	0	7	E	0	L1
XTP	11	0	6
TAP	11	192	6
TAP	11	192	7
TAP	12	0	1
TAP	12	192	0
TAP	12	192	1
TAP	13	0	6
TAP	13	192	6
TAP	13	192	7
HLD	14	0	0	96
HLD	14	0	7	96
TAP	14	192	1
TAP	14	192	6
TAP	15	0	2
TAP	15	192	2
TAP	15	192	3
TAP	16	0	5
TAP	16	192	4
TAP	16	192	5
TAP	17	0	2
TAP	17	192	2
TAP	17	192	3
TAP	18	0	4
TAP	18	96	4
TAP	18	192	3
TAP	18	192	5
STR	19	0	6
SCL	19	0	6	96	192	3
STR	20	0	2
SI_	20	0	2	96	192	7
HLD	21	0	6	192
TAP	21	192	7
HLD	22	0	0	96
HLD	22	0	1	96
TAP	22	192	0
TAP	22	192	1
STR	23	0	1
SCR	23	0	1	96	192	4
STR	24	0	5
SI_	24	0	5	96	192	0
HLD	25	0	1	192
TAP	25	192	0
XTP	26	0	2
XTP	26	0	7
STR	27	0	2
SCL	27	0	2	96	192	7
STR	28	0	6
SI_	28	0	6	96	192	3
HLD	29	0	2	192
TAP	29	192	3
HLD	30	0	4	96
HLD	30	0	5	96
TAP	30	192	4
TAP	30	192	5
STR	31	0	5
SCR	31	0	5	96	192	0
STR	32	0	1
SI_	32	0	1	96	192	4
HLD	33	0	5	192
TAP	33	192	4
XTP	34	0	3
XTP	34	0	6
STR	35	0	5
SI_	35	0	5	96	192	0
XTP	36	0	1
XTP	36	192	1
STR	37	0	2
SI_	37	0	2	96	192	7
XTP	38	0	6
XTP	38	192	6
STR	39	0	5
SI_	39	0	5	96	192	0
XTP	40	0	1
XTP	40	192	0
STR	41	0	7
SCL	41	0	7	96	192	4
STR	42	0	3
SCL	42	0	3	96	192	0
TAP	43	0	7
TAP	43	192	0
TAP	43	192	7
XTP	44	0	1
XTP	44	0	6
BRK	45	0	1
TAP	45	96	1
TAP	45	192	0
TAP	45	288	0
TAP	46	0	7
TAP	46	96	7
TAP	46	192	0
TAP	46	192	6
TAP	47	0	5
TAP	47	96	5
TAP	47	192	4
TAP	47	288	4
HLD	48	0	3	96
HLD	48	0	5	96
TAP	48	192	2
TAP	48	192	6
TAP	49	0	6
TAP	49	96	6
TAP	49	192	7
TAP	49	288	7
TAP	50	0	0
TAP	50	96	0
TAP	50	192	1
TAP	50	192	7
TAP	51	0	2
TAP	51	0	4
STR	51	192	3
SI_	51	192	3	96	240	7
STR	51	192	5
SI_	51	192	5	96	240	1
BRK	53	0	6
TAP	53	96	6
TAP	53	192	7
TAP	53	288	7
TAP	54	0	0
TAP	54	96	0
TAP	54	192	1
TAP	54	192	7
TAP	55	0	2
TAP	55	96	2
STR	55	192	3
SCL	55	192	3	96	192	0
STR	55	192	4
SCR	55	192	4	96	192	7
XTP	57	0	6
XTP	57	0	7
XTP	57	192	0
XTP	57	192	1
TAP	58	0	2
TAP	58	96	2
TAP	58	192	1
TAP	58	192	3
TAP	59	0	4
TAP	59	96	4
XST	59	192	3
SI_	59	192	3	96	192	0
XST	59	192	5
SI_	59	192	5	96	192	0
TTP	60	336	0	C	1	L1
STR	63	0	6
SSR	63	0	6	96	480	2
STR	65	0	1
SUR	65	0	1	96	480	3
XTP	67	0	4
XTP	67	192	4
TAP	68	0	3
TAP	68	96	3
TAP	68	192	3
TAP	68	192	4
HLD	69	0	5	384
HLD	70	0	4	384
HLD	71	0	3	384
TAP	72	0	2
HLD	73	0	1	384
HLD	74	0	0	384
HLD	75	0	7	384
TAP	76	0	6
STR	77	0	0
SCR	77	0	0	96	384	5
STR	79	0	7
SCL	79	0	7	96	384	2
STR	81	0	0
SCR	81	0	0	96	384	5
TAP	83	0	6
TAP	83	192	7
TAP	84	0	0
TAP	84	0	7
TAP	84	192	1
TAP	84	192	6
XST	84	288	1
SXL	84	288	1	96	768	7
XST	84	288	6
SXR	84	288	6	96	768	0
TTP	89	0	4	B	0	L1
TTP	89	0	5	B	0	L1
TTP	91	0	2	B	0	L1
TTP	91	0	3	B	0	L1
TTP	93	0	0	B	0	L1
TTP	93	0	1	B	0	L1
XHO	95	0	7	288
XTP	95	288	0
XTP	96	0	0
BRK	97	0	1
TAP	97	96	1
TAP	97	192	0
TAP	97	288	0
TAP	98	0	7
TAP	98	96	7
TAP	98	192	0
TAP	98	192	6
TAP	99	0	5
TAP	99	96	5
STR	99	192	3
SCL	99	192	3	96	192	0
STR	99	192	4
SCR	99	192	4	96	192	7
XTP	101	0	0
XTP	101	0	1
XTP	101	192	6
XTP	101	192	7
TAP	102	0	5
TAP	102	96	5
TAP	102	192	4
TAP	102	192	6
TAP	103	0	3
TAP	103	96	3
XST	103	192	3
SI_	103	192	3	96	192	0
XST	103	192	4
SI_	103	192	4	96	192	7
TTP	105	0	0	C	1	L1
TTP	105	0	2	B	0	L1
TTP	105	0	5	B	0	L1
XTP	107	0	7
TAP	107	96	7
TAP	107	192	0
TAP	107	288	0
TAP	108	0	0
TAP	108	0	7
TAP	108	96	0
TAP	108	96	7
TAP	108	192	1
TAP	108	192	6
STR	109	0	5
SI_	109	0	5	96	144	0
STR	110	0	1
SI_	110	0	1	96	144	4
STR	111	0	5
SI_	111	0	5	96	144	0
TAP	112	0	1
TAP	112	192	0
TAP	112	192	1
STR	113	0	7
SCL	113	0	7	96	144	4
STR	114	0	3
SCL	114	0	3	96	144	0
STR	115	0	7
SCL	115	0	7	96	144	4
TAP	116	0	3
TAP	116	192	2
TAP	116	192	4
XTP	117	0	1
TAP	117	192	0
TAP	117	192	1
TAP	118	0	6
TAP	118	192	6
TAP	118	192	7
TAP	119	0	1
TAP	119	192	0
TAP	119	192	1
HLD	120	0	0	96
HLD	120	0	7	96
TAP	120	192	1
TAP	120	192	6
TAP	121	0	5
TAP	121	192	4
TAP	121	192	5
TAP	122	0	2
TAP	122	192	2
TAP	122	192	3
TAP	123	0	5
TAP	123	192	4
TAP	123	192	5
TAP	124	0	3
TAP	124	96	3
TAP	124	192	2
TAP	124	192	4
HLD	125	0	0	144
HLD	125	0	1	144
HLD	126	0	6	144
HLD	126	0	7	144
HLD	127	0	0	144
HLD	127	0	1	144
TAP	128	0	0
TAP	128	0	7
TTP	128	192	0	C	0	L1

T_REC_TAP	139
T_REC_BRK	3
T_REC_XTP	27
T_REC_HLD	26
T_REC_XHO	1
T_REC_STR	30
T_REC_BST	0
T_REC_XST	6
T_REC_TTP	27
T_REC_THO	0
T_REC_SLD	36
T_REC_ALL	295
T_NUM_TAP	229
T_NUM_BRK	3
T_NUM_HLD	27
T_NUM_SLD	36
T_NUM_ALL	295
T_JUDGE_TAP	232
T_JUDGE_HLD	108
T_JUDGE_SLD	36
T_JUDGE_ALL	376
TTM_EACHPAIRS	57
TTM_SCR_TAP	114500
TTM_SCR_BRK	7800
TTM_SCR_HLD	27000
TTM_SCR_SLD	54000
TTM_SCR_ALL	203300
TTM_SCR_S	196950
TTM_SCR_SS	203000
TTM_RAT_ACV	10014

