VERSION	0.00.00	1.03.00
FES_MODE	0
BPM_DEF	235.000	235.000	235.000	235.000
MET_DEF	4	4
RESOLUTION	384
CLK_DEF	384
COMPATIBLE_CODE	MA2

BPM	0	0	235.000
MET	0	0	4	4

XTP	3	0	0
TAP	4	0	0
TAP	5	0	0
XTP	7	0	7
TAP	8	0	7
TAP	9	0	7
TAP	11	0	0
TAP	12	0	0
TAP	13	0	1
TAP	15	0	2
TAP	16	0	2
TAP	17	0	3
TAP	17	0	4
TAP	19	0	4
TAP	20	0	4
TAP	21	0	4
TAP	23	0	5
TAP	24	0	5
TAP	25	0	5
TAP	27	0	6
TAP	28	0	6
TAP	29	0	6
TAP	31	0	7
TAP	32	0	7
TAP	33	0	0
TAP	33	0	7
TTP	35	0	0	B	0	L1
TTP	35	0	7	B	0	L1
TTP	37	0	1	B	0	L1
TTP	37	0	6	B	0	L1
TTP	39	0	2	B	0	L1
TTP	39	0	5	B	0	L1
TTP	41	0	3	B	0	L1
TTP	41	0	4	B	0	L1
TTP	43	0	0	C	1	L1
BRK	45	0	7
TAP	45	192	7
TAP	46	0	7
TAP	47	0	6
TAP	48	0	6
TAP	49	0	5
TAP	49	192	5
TAP	50	0	5
TAP	51	0	4
TAP	52	0	3
TAP	52	0	4
TAP	53	0	3
TAP	53	192	3
TAP	54	0	3
TAP	55	0	2
TAP	56	0	2
TAP	57	0	1
TAP	57	192	1
TAP	58	0	1
TAP	59	0	0
TAP	59	0	7
XHO	60	0	0	336
XHO	60	0	7	336
HLD	65	0	0	768
STR	69	0	0
SI_	69	0	0	96	480	3
TAP	72	0	7
STR	73	0	7
SI_	73	0	7	96	480	4
TAP	76	0	0
STR	77	0	1
SI_	77	0	1	96	480	4
TAP	80	0	6
STR	81	0	6
SI_	81	0	6	96	480	3
HLD	84	0	0	336
TTP	89	0	0	B	0	L1
TTP	90	0	1	B	0	L1
TTP	91	0	2	B	0	L1
TTP	92	0	3	B	0	L1
TTP	93	0	4	B	0	L1
TTP	94	0	5	B	0	L1
THO	95	0	0	384	C	1	L1
XTP	97	0	7
TAP	97	192	7
TAP	98	0	6
TAP	98	0	7
TAP	99	0	5
TAP	99	192	5
TAP	100	0	4
TAP	100	0	5
TAP	101	0	2
TAP	101	192	2
TAP	102	0	2
TAP	102	0	3
TAP	103	0	1
TAP	103	192	1
TAP	104	0	0
TAP	104	0	1
HLD	105	0	0	384
HLD	105	0	7	384
XTP	107	0	0
XTP	107	0	7
XTP	107	192	0
XTP	107	192	7
XTP	108	0	0
XTP	108	0	7
HLD	109	0	0	384
HLD	109	0	1	384
TAP	111	0	0
TAP	111	0	1
TAP	112	0	2
HLD	113	0	2	384
HLD	113	0	3	384
TAP	115	0	2
TAP	115	0	3
TAP	116	0	4
TAP	117	0	5
TAP	117	192	5
TAP	118	0	5
HLD	119	0	6	384
TAP	121	0	7
TAP	121	192	7
TAP	122	0	7
HLD	123	0	0	384
HLD	123	0	7	384
TTP	125	0	0	B	0	L1
TTP	125	0	7	B	0	L1
TTP	126	0	1	B	0	L1
TTP	126	0	6	B	0	L1
TTP	127	0	2	B	0	L1
TTP	127	0	5	B	0	L1
THO	128	0	0	288	C	0	L1

T_REC_TAP	74
T_REC_BRK	1
T_REC_XTP	9
T_REC_HLD	11
T_REC_XHO	2
T_REC_STR	4
T_REC_BST	0
T_REC_XST	0
T_REC_TTP	21
T_REC_THO	2
T_REC_SLD	4
T_REC_ALL	128
T_NUM_TAP	108
T_NUM_BRK	1
T_NUM_HLD	15
T_NUM_SLD	4
T_NUM_ALL	128
T_JUDGE_TAP	109
T_JUDGE_HLD	123
T_JUDGE_SLD	4
T_JUDGE_ALL	236
TTM_EACHPAIRS	18
TTM_SCR_TAP	54000
TTM_SCR_BRK	2600
TTM_SCR_HLD	15000
TTM_SCR_SLD	6000
TTM_SCR_ALL	77600
TTM_SCR_S	75200
TTM_SCR_SS	77500
TTM_RAT_ACV	10012

