VERSION	0.00.00	1.03.00
FES_MODE	0
BPM_DEF	120.000	120.000	120.000	120.000
MET_DEF	4	4
RESOLUTION	384
CLK_DEF	384
COMPATIBLE_CODE	MA2

BPM	0	0	120.000
MET	0	0	4	4

TAP	2	0	3
TAP	2	48	3
HLD	2	128	2	48
HLD	2	128	4	160
TTP	2	288	2	E	0	M1
TTP	2	296	2	B	0	M1
TAP	3	0	4
TAP	3	48	4
HLD	3	128	3	160
HLD	3	128	5	48
TTP	3	288	6	E	0	M1
TTP	3	296	5	B	0	M1
TAP	4	0	3
TAP	4	48	3
HLD	4	128	2	48
HLD	4	128	4	160
TTP	4	288	2	E	0	M1
TTP	4	296	2	B	0	M1
TAP	5	0	4
TAP	5	48	4
HLD	5	128	3	160
HLD	5	128	5	48
TTP	5	288	6	E	0	M1
TTP	5	296	5	B	0	M1
TAP	6	0	3
TAP	6	48	4
TAP	6	96	2
TAP	6	128	3
TAP	6	176	3
TAP	6	192	2
TAP	6	240	4
TAP	6	288	2
TAP	6	336	4
TAP	7	0	3
TAP	7	0	5
TAP	7	48	3
TAP	7	96	5
TAP	7	128	4
TAP	7	176	4
TAP	7	192	5
TAP	7	240	3
TAP	7	288	5
TAP	7	336	3
TAP	8	0	2
TAP	8	0	4
TAP	8	48	4
TAP	8	96	2
TAP	8	128	3
TAP	8	176	3
TAP	8	192	2
TAP	8	240	4
TAP	8	288	2
TAP	8	336	4
HLD	9	0	3	144
HLD	9	0	5	128
STR	9	176	4
SI_	9	176	4	96	32	7
TAP	9	288	3
HLD	10	0	1	80
TAP	10	80	0
TAP	10	144	2
TAP	10	144	7
HLD	10	192	6	80
TAP	10	272	4
TAP	10	320	4
TAP	10	336	5
HLD	11	0	2	80
TAP	11	80	3
TAP	11	144	1
TAP	11	144	4
TAP	11	192	6
TAP	11	192	7
TAP	11	240	0
TAP	11	240	1
TAP	11	288	2
TAP	11	288	3
TAP	11	336	4
TAP	11	336	5
TAP	12	0	3
HLD	12	0	6	80
TAP	12	80	7
TAP	12	144	0
TAP	12	144	5
HLD	12	192	1	80
TAP	12	272	3
TAP	12	320	3
TAP	12	336	2
HLD	13	0	5	80
TAP	13	80	4
TAP	13	144	3
TAP	13	144	6
TAP	13	192	0
TAP	13	192	1
TAP	13	240	6
TAP	13	240	7
TAP	13	288	4
TAP	13	288	5
TAP	13	320	2
TAP	13	336	3
TAP	14	0	2
TAP	14	0	4
TAP	14	48	2
TAP	14	48	4
HLD	14	96	1	80
HLD	14	176	2	64
TAP	14	240	3
TAP	14	288	3
TAP	14	288	4
TAP	15	0	3
TAP	15	0	5
TAP	15	48	3
TAP	15	48	5
HLD	15	96	6	80
HLD	15	176	5	64
TAP	15	240	4
TAP	15	288	3
TAP	15	288	4
TAP	16	0	1
TAP	16	0	3
TAP	16	48	2
TAP	16	96	3
TAP	16	144	4
STR	16	192	5
SI_	16	192	5	96	32	3
TAP	16	240	4
TAP	16	240	6
TAP	17	0	2
TAP	17	0	4
TAP	17	48	1
TAP	17	96	3
TAP	17	96	5
TAP	17	144	6
TAP	17	192	0
TAP	17	240	1
TAP	17	240	7
TAP	17	288	2
TAP	17	288	6
TAP	17	336	3
TAP	17	336	5
TAP	18	0	4
TAP	18	48	4
TAP	18	96	4
TAP	18	128	3
HLD	18	176	2	112
TAP	18	176	4
TAP	18	288	3
TAP	18	336	2
TAP	19	0	5
TAP	19	32	5
TAP	19	48	4
TAP	19	96	2
TAP	19	96	6
HLD	19	176	0	64
TAP	19	240	6
TAP	19	288	1
TAP	19	288	5
TAP	19	336	2
TAP	19	336	4
TAP	20	0	3
TAP	20	48	3
TAP	20	96	3
TAP	20	128	4
TAP	20	176	3
HLD	20	176	5	112
TAP	20	288	4
TAP	20	336	5
TAP	21	0	2
TAP	21	32	2
TAP	21	48	3
TAP	21	96	4
TAP	21	128	3
TAP	21	176	1
TAP	21	176	5
TAP	21	288	2
STR	21	288	6
SI_	21	288	6	96	32	3
TAP	21	336	7
TAP	22	0	6
STR	22	96	1
SI_	22	96	1	96	32	4
TAP	22	96	5
TAP	22	144	0
TAP	22	192	1
TAP	22	288	3
STR	22	288	6
SCL	22	288	6	96	32	3
TAP	22	336	7
TAP	23	0	6
STR	23	96	1
SCR	23	96	1	96	32	4
TAP	23	96	4
TAP	23	144	0
TAP	23	192	1
TAP	23	288	2
STR	23	288	6
SI_	23	288	6	96	32	2
TAP	23	336	1
TAP	23	336	7
TAP	24	0	6
STR	24	96	1
SI_	24	96	1	96	32	5
TAP	24	96	5
TAP	24	144	0
TAP	24	144	6
TAP	24	192	1
TAP	24	288	2
TAP	24	288	6
TAP	24	336	2
HLD	24	336	6	96
TAP	25	48	7
TAP	25	96	4
TAP	25	96	5
TAP	25	144	2
TAP	25	144	3
STR	25	192	0
SI_	25	192	0	96	32	4
TAP	25	192	1
STR	25	240	6
SI_	25	240	6	96	32	2
TAP	25	288	0
TAP	25	336	6
HLD	26	0	7	48
HLD	26	96	0	48
HLD	26	96	6	48
HLD	26	192	1	48
HLD	26	192	5	48
HLD	26	288	2	48
HLD	26	288	4	48
TAP	27	0	7
TAP	27	32	7
TAP	27	64	7
TAP	27	96	0
TAP	27	128	0
TAP	27	160	0
BRK	27	192	1
BRK	27	192	6
HLD	28	0	4	384
STR	28	288	3
SCL	28	288	3	96	144	4
TAP	29	144	0
TTP	29	240	2	B	0	M1
TTP	29	240	2	E	0	M1
BRK	29	240	6
BRK	29	288	1
TTP	29	288	5	B	0	M1
TTP	29	288	6	E	0	M1
STR	30	0	7
SI_	30	0	7	96	32	3
TAP	30	48	0
TAP	30	48	6
TAP	30	96	7
TAP	30	144	2
TAP	30	176	2
TAP	30	192	3
TAP	30	224	3
TAP	30	240	1
TAP	30	288	0
TAP	30	288	4
TAP	30	368	6
TAP	31	0	7
TAP	31	48	0
TAP	31	48	5
TAP	31	80	0
TAP	31	80	5
TAP	31	128	1
TAP	31	144	0
TAP	31	192	2
TAP	31	192	7
TAP	31	240	3
TAP	31	240	6
XHO	31	288	4	32
XHO	31	288	5	32
TAP	31	368	2
TAP	32	0	3
TAP	32	32	3
TAP	32	48	0
TAP	32	80	0
TAP	32	96	5
TAP	32	128	5
TAP	32	144	4
TAP	32	176	4
STR	32	192	7
SF_	32	192	7	96	32	3
TAP	32	240	1
TAP	32	240	5
TAP	32	368	0
TAP	33	0	6
TAP	33	32	6
TAP	33	48	4
TAP	33	80	4
TAP	33	96	2
TAP	33	128	2
TAP	33	144	0
TAP	33	176	0
STR	33	192	7
SI_	33	192	7	96	32	3
STR	33	240	1
SI_	33	240	1	96	32	5
TAP	33	288	7
TAP	33	336	1
TAP	34	0	0
TAP	34	48	1
TAP	34	48	7
TAP	34	96	2
TAP	34	96	6
TAP	34	144	0
TAP	34	176	0
STR	34	192	4
SI_	34	192	4	96	32	7
TAP	34	224	4
TAP	34	240	2
TAP	34	288	3
TAP	34	368	1
TAP	35	0	0
STR	35	48	2
SCR	35	48	2	96	48	5
TAP	35	48	7
TAP	35	96	1
TAP	35	144	6
HLD	35	176	6	64
TAP	35	240	7
TAP	35	288	0
TAP	35	288	5
TAP	35	336	1
TAP	35	336	4
TAP	35	368	2
TAP	36	0	3
TAP	36	32	3
TAP	36	48	4
TAP	36	80	4
TAP	36	96	6
TAP	36	128	6
TAP	36	144	0
STR	36	176	1
SCR	36	176	1	96	80	7
TAP	36	176	7
TAP	36	288	0
TAP	36	368	4
HLD	37	0	4	288
HLD	38	0	2	80
BRK	38	0	6
TAP	38	80	3
TAP	38	144	3
TAP	38	144	4
HLD	38	192	5	80
TAP	38	272	4
TAP	38	320	4
TAP	38	336	6
HLD	39	0	6	80
TAP	39	80	7
TAP	39	144	0
TAP	39	144	7
TAP	39	192	2
TAP	39	192	3
TAP	39	240	1
TAP	39	288	4
TAP	39	288	5
TAP	39	336	6
TAP	39	368	6
TAP	40	0	4
TAP	40	32	4
TAP	40	48	3
TAP	40	80	3
HLD	40	96	1	48
TAP	40	144	3
TAP	40	176	3
TAP	40	192	4
TAP	40	224	4
HLD	40	240	6	48
TAP	40	288	4
TAP	40	336	0
TAP	40	336	7
TAP	41	0	1
TAP	41	0	5
TAP	41	48	2
TAP	41	48	6
TAP	41	96	0
HLD	41	128	0	48
TAP	41	176	7
TAP	41	240	1
TAP	41	240	6
TAP	41	288	3
TAP	41	288	4
HLD	41	336	2	32
TAP	41	368	3
TAP	42	0	1
HLD	42	48	5	32
TAP	42	80	4
TAP	42	96	6
HLD	42	144	2	32
TAP	42	176	3
TAP	42	192	1
HLD	42	240	5	32
TAP	42	272	4
TAP	42	288	6
TAP	42	336	0
TAP	42	336	7
TAP	43	0	1
TAP	43	32	1
TAP	43	48	3
TAP	43	80	3
TAP	43	128	2
TAP	43	128	4
TAP	43	176	3
TAP	43	176	5
TAP	43	224	6
TAP	43	240	4
TAP	43	272	4
TAP	43	288	6
TAP	43	336	3
TAP	43	336	4
TAP	44	0	2
TAP	44	32	1
TAP	44	32	3
TAP	44	96	5
TAP	44	128	4
TAP	44	128	6
TAP	44	192	0
TAP	44	192	1
TAP	44	224	2
TAP	44	224	7
TAP	44	288	6
TAP	44	288	7
TAP	44	320	0
TAP	44	320	5
XHO	45	0	0	80
XST	45	0	1
SCR	45	0	1	96	32	4
TAP	45	80	1
XST	45	144	6
SCL	45	144	6	96	32	3
XHO	45	144	7	80
TAP	45	224	6
TAP	45	288	0
TAP	45	320	0
TAP	45	336	7
HLD	46	0	2	1440
TTP	46	96	4	B	0	M1
TTP	46	104	4	E	0	M1
TTP	46	288	4	B	0	M1
TTP	46	296	4	E	0	M1
TTP	47	96	4	B	0	M1
TTP	47	104	4	E	0	M1
TTP	47	288	4	B	0	M1
TTP	47	296	4	E	0	M1
TTP	48	96	4	B	0	M1
TTP	48	104	4	E	0	M1
TTP	48	288	0	C	0	M1
TTP	49	96	4	B	0	M1
TTP	49	104	4	E	0	M1
TTP	49	288	4	B	0	M1
TTP	49	296	4	E	0	M1
TAP	50	0	3
TAP	50	0	5
TAP	50	48	5
TAP	50	96	2
TAP	50	96	4
TAP	50	144	2
TAP	50	192	3
TAP	50	192	5
TAP	50	240	4
TAP	50	288	2
TAP	50	336	3
TAP	51	0	2
TAP	51	0	6
TAP	51	48	5
TAP	51	96	4
TAP	51	144	1
HLD	51	144	5	96
TAP	51	240	4
TAP	51	288	3
TAP	51	336	2
HLD	52	0	2	128
TAP	52	128	4
TAP	52	144	3
HLD	52	176	5	112
TAP	52	288	2
THO	53	0	0	288	C	1	M1
BST	54	0	0
SI_	54	0	0	96	32	4
BRK	54	0	7
TAP	54	48	1
TAP	54	48	6
TAP	54	96	0
TAP	54	96	7
TAP	54	144	5
TAP	54	176	5
TAP	54	192	4
TAP	54	224	4
TAP	54	240	6
TAP	54	288	3
TAP	54	288	7
TAP	54	368	1
TAP	55	0	0
TAP	55	48	2
TAP	55	48	7
TAP	55	80	2
TAP	55	80	7
TAP	55	128	6
TAP	55	144	7
TAP	55	192	0
TAP	55	192	5
TAP	55	240	1
TAP	55	240	4
XHO	55	288	2	32
XHO	55	288	3	32
TAP	55	368	6
TAP	56	0	0
TAP	56	32	1
TAP	56	48	7
TAP	56	80	6
STR	56	96	0
SCR	56	96	0	96	32	3
TAP	56	128	1
STR	56	144	7
SCL	56	144	7	96	32	4
TAP	56	176	6
STR	56	192	0
SI_	56	192	0	96	32	4
TAP	56	240	7
TAP	56	288	0
TAP	56	368	1
TAP	57	0	7
TAP	57	32	6
TAP	57	48	0
TAP	57	80	1
STR	57	96	7
SI_	57	96	7	96	32	3
TAP	57	128	6
STR	57	144	0
SI_	57	144	0	96	32	4
TAP	57	176	1
STR	57	192	7
SCL	57	192	7	96	32	4
STR	57	240	0
SCR	57	240	0	96	32	3
TAP	57	288	7
TAP	57	336	0
TAP	58	0	7
TAP	58	48	0
TAP	58	48	6
TAP	58	96	1
TAP	58	96	5
TAP	58	144	7
TAP	58	176	7
STR	58	192	3
SI_	58	192	3	96	32	0
TAP	58	224	3
TAP	58	240	5
TAP	58	288	4
TAP	58	368	6
TAP	59	0	7
TAP	59	48	0
STR	59	48	5
SCL	59	48	5	96	48	2
TAP	59	96	6
TAP	59	144	1
HLD	59	176	1	64
TAP	59	240	0
TAP	59	288	2
TAP	59	288	7
TAP	59	336	3
TAP	59	336	6
TAP	59	368	5
TAP	60	0	4
TAP	60	32	4
TAP	60	48	3
TAP	60	80	3
TAP	60	96	1
TAP	60	128	1
TAP	60	144	7
TAP	60	176	0
STR	60	176	6
SI_	60	176	6	96	32	2
HLD	60	288	4	384
XTP	60	368	3
XHO	61	0	3	288
TTP	61	296	3	E	0	M1
TTP	61	304	2	E	0	M1
TTP	61	312	1	E	0	M1
TTP	61	320	0	E	0	M1
TTP	61	328	7	E	0	M1
TTP	61	336	6	E	0	M1
TTP	61	344	5	E	0	M1
BRK	62	0	0
TAP	62	80	1
TAP	62	80	7
TAP	62	144	0
TAP	62	144	6
HLD	62	192	5	80
TAP	62	272	4
TAP	62	320	4
TAP	62	336	6
TAP	62	368	6
HLD	63	0	0	80
TAP	63	80	7
TAP	63	144	1
TAP	63	144	5
TAP	63	192	2
TAP	63	192	3
TAP	63	240	0
TAP	63	240	1
TAP	63	288	6
TAP	63	288	7
TAP	63	336	4
TAP	63	336	5
TAP	63	368	4
HLD	64	0	6	80
TAP	64	80	0
TAP	64	144	1
TAP	64	144	7
HLD	64	192	2	80
TAP	64	272	3
TAP	64	320	3
TAP	64	336	1
TAP	64	368	1
HLD	65	0	7	80
TAP	65	80	0
TAP	65	144	2
STR	65	144	6
SI_	65	144	6	96	32	2
TAP	65	192	1
TAP	65	192	7
TAP	65	240	2
TAP	65	240	6
TAP	65	288	0
TAP	65	320	0
TAP	65	336	7
TAP	65	368	7
HLD	66	0	0	80
TAP	66	80	6
TAP	66	144	1
TAP	66	144	7
HLD	66	192	2	80
TAP	66	272	3
TAP	66	320	3
TAP	66	336	1
TAP	66	368	1
HLD	67	0	7	80
TAP	67	80	0
TAP	67	144	2
TAP	67	144	6
TAP	67	192	4
TAP	67	192	5
TAP	67	240	6
TAP	67	240	7
TAP	67	288	0
TAP	67	288	1
TAP	67	336	2
TAP	67	336	3
TAP	67	368	3
HLD	68	0	1	80
TAP	68	80	7
TAP	68	144	0
TAP	68	144	6
HLD	68	192	5	80
TAP	68	272	4
TAP	68	320	4
TAP	68	336	6
TAP	68	368	6
HLD	69	0	0	80
TAP	69	80	7
STR	69	144	1
SI_	69	144	1	96	32	5
TAP	69	144	5
TAP	69	192	0
TAP	69	192	6
TAP	69	240	1
TAP	69	240	5
TAP	69	288	7
TAP	69	320	7
TAP	69	336	0
TAP	69	368	0
XTP	70	0	1
XTP	70	0	6

T_REC_TAP	496
T_REC_BRK	7
T_REC_XTP	3
T_REC_HLD	61
T_REC_XHO	7
T_REC_STR	30
T_REC_BST	1
T_REC_XST	2
T_REC_TTP	34
T_REC_THO	1
T_REC_SLD	33
T_REC_ALL	675
T_NUM_TAP	565
T_NUM_BRK	8
T_NUM_HLD	69
T_NUM_SLD	33
T_NUM_ALL	675
T_JUDGE_TAP	573
T_JUDGE_HLD	182
T_JUDGE_SLD	33
T_JUDGE_ALL	788
TTM_EACHPAIRS	133
TTM_SCR_TAP	282500
TTM_SCR_BRK	20800
TTM_SCR_HLD	69000
TTM_SCR_SLD	49500
TTM_SCR_ALL	421800
TTM_SCR_S	408400
TTM_SCR_SS	421000
TTM_RAT_ACV	10019

