VERSION	0.00.00	1.03.00
FES_MODE	0
BPM_DEF	120.000	120.000	120.000	120.000
MET_DEF	4	4
RESOLUTION	384
CLK_DEF	384
COMPATIBLE_CODE	MA2

BPM	0	0	120.000
MET	0	0	4	4

HLD	2	0	5	384
TAP	2	96	3
TAP	2	288	3
HLD	3	0	2	384
TAP	3	96	4
XTP	3	288	4
HLD	4	0	5	384
TAP	4	96	3
TAP	4	288	3
HLD	5	0	2	384
TAP	5	96	4
TAP	5	288	4
TAP	6	0	5
TAP	6	96	3
TAP	6	96	5
TAP	6	192	2
TAP	6	288	2
TAP	6	288	4
TAP	7	0	5
TAP	7	96	4
TAP	7	96	5
TAP	7	192	2
TAP	7	288	2
TAP	7	288	3
TAP	8	0	5
TAP	8	96	3
TAP	8	96	5
TAP	8	192	2
TAP	8	288	2
TAP	8	288	4
HLD	9	0	5	288
XTP	9	288	0
TAP	10	0	2
TAP	10	96	4
TAP	10	144	4
TAP	10	192	3
XTP	10	288	4
XTP	10	288	6
TAP	11	0	5
TAP	11	96	3
TAP	11	144	3
TAP	11	192	4
TAP	11	288	1
TAP	11	288	7
TAP	12	0	2
TAP	12	96	4
TAP	12	144	4
TAP	12	192	3
XTP	12	288	4
XTP	12	288	6
TAP	13	0	5
TAP	13	96	3
TAP	13	144	3
TAP	13	192	4
TAP	13	288	2
TAP	13	288	5
HLD	14	0	1	384
TAP	14	96	0
TAP	14	288	3
HLD	15	0	6	384
TAP	15	96	7
TAP	15	288	4
HLD	16	0	1	384
TAP	16	96	0
TAP	16	288	3
HLD	17	0	6	384
TAP	17	96	7
TAP	17	288	4
HLD	18	0	1	384
TAP	18	96	3
TAP	18	288	3
HLD	19	0	6	384
TAP	19	96	7
TAP	19	288	4
HLD	20	0	1	384
TAP	20	96	0
TAP	20	288	3
HLD	21	0	6	288
TAP	21	96	7
TAP	21	288	4
TAP	22	0	3
TAP	22	0	7
TAP	22	96	1
TAP	22	144	1
TAP	22	192	3
TAP	22	288	2
TAP	22	288	3
TAP	23	0	0
TAP	23	0	4
TAP	23	96	6
TAP	23	144	6
TAP	23	192	4
TAP	23	288	4
TAP	23	288	5
TAP	24	0	3
TAP	24	0	7
TAP	24	96	1
TAP	24	144	1
TAP	24	192	3
TAP	24	288	2
TAP	24	288	3
TAP	25	0	0
TAP	25	0	4
TAP	25	96	6
TAP	25	144	6
TAP	25	192	4
TAP	25	288	4
TAP	25	288	5
TAP	26	0	3
TAP	26	0	7
TAP	26	96	2
TAP	26	96	4
TAP	26	192	1
TAP	26	192	5
TAP	26	288	3
STR	26	288	6
SXL	26	288	6	96	240	3
HLD	27	0	2	672
HLD	28	0	4	480
HLD	29	0	3	96
XTP	29	144	2
XTP	29	144	5
BRK	29	240	0
BRK	29	240	7
BRK	29	288	0
BRK	29	288	7
TAP	30	0	5
TAP	30	48	6
TAP	30	96	2
TAP	30	144	1
TAP	30	192	6
TAP	30	240	3
TAP	30	240	7
TAP	30	288	3
TAP	30	288	7
TAP	31	0	2
TAP	31	48	3
TAP	31	96	4
TAP	31	144	5
TAP	31	192	3
TAP	31	192	6
TAP	31	288	0
TAP	31	288	7
TAP	32	0	5
TAP	32	48	5
TAP	32	96	2
TAP	32	144	2
TAP	32	192	3
TAP	32	192	5
TAP	32	240	4
TAP	32	240	6
XTP	32	288	3
XTP	32	288	7
TAP	33	0	2
TAP	33	48	2
TAP	33	96	5
TAP	33	144	5
TAP	33	192	2
TAP	33	192	4
TAP	33	240	1
TAP	33	240	3
XTP	33	288	0
XTP	33	288	4
TAP	34	0	2
TAP	34	48	1
TAP	34	96	5
TAP	34	144	6
TAP	34	192	1
TAP	34	240	0
TAP	34	240	4
TAP	34	288	0
TAP	34	288	4
TAP	35	0	6
TAP	35	48	6
STR	35	96	0
SI_	35	96	0	96	48	4
STR	35	96	7
SI_	35	96	7	96	48	3
TAP	35	288	2
TAP	35	288	5
TAP	36	0	3
TAP	36	48	3
TAP	36	96	5
TAP	36	144	5
TAP	36	192	2
TAP	36	192	6
TAP	36	288	1
TAP	36	288	5
XHO	37	0	7	288
BRK	37	288	0
TAP	38	0	1
TAP	38	0	5
TAP	38	96	2
TAP	38	144	3
TAP	38	192	4
TAP	38	288	4
TAP	38	288	5
TAP	39	0	2
TAP	39	0	6
TAP	39	96	5
TAP	39	144	4
TAP	39	192	3
HLD	39	288	2	96
TAP	39	288	3
HLD	40	0	0	96
HLD	40	96	7	96
HLD	40	192	5	96
TAP	40	288	3
TAP	41	0	2
TAP	41	48	2
TAP	41	96	4
TAP	41	144	4
TAP	41	192	3
TAP	41	240	3
TAP	41	288	4
TAP	41	336	5
TAP	42	0	4
TAP	42	0	6
TAP	42	48	2
TAP	42	96	1
TAP	42	96	3
TAP	42	144	5
TAP	42	192	4
TAP	42	192	6
TAP	42	240	2
TAP	42	288	1
TAP	42	288	3
TAP	42	336	5
TAP	43	0	4
HLD	43	0	6	96
TAP	43	96	5
TAP	43	192	3
TAP	43	192	4
TAP	43	240	2
TAP	43	288	1
TAP	43	288	3
HLD	44	0	0	24
HLD	44	0	1	24
HLD	44	96	2	24
HLD	44	96	3	24
HLD	44	192	4	24
HLD	44	192	5	24
HLD	44	288	6	24
HLD	44	288	7	24
XST	45	0	0
SCR	45	0	0	96	48	3
XTP	45	96	6
XST	45	144	7
SCL	45	144	7	96	48	4
XTP	45	240	0
XTP	45	288	0
HLD	46	0	1	1440
TTP	46	96	4	E	0	M1
TTP	46	288	3	E	0	M1
TTP	47	96	4	E	0	M1
XTP	47	288	3
TTP	48	96	4	E	0	M1
TTP	48	288	3	E	0	M1
TTP	49	96	4	E	0	M1
TAP	49	288	3
TAP	50	0	4
TAP	50	96	5
TAP	50	192	3
TAP	50	288	2
TAP	51	0	4
TAP	51	96	6
TAP	51	192	3
TAP	51	288	1
HLD	52	0	7	96
TAP	52	96	4
HLD	52	192	0	96
STR	52	288	3
SF_	52	288	3	96	144	7
XTP	53	240	0
XTP	53	240	6
XTP	53	288	0
XTP	53	288	6
TAP	54	0	1
TAP	54	48	2
TAP	54	96	6
TAP	54	144	5
TAP	54	192	2
TAP	54	240	3
TAP	54	240	7
TAP	54	288	3
TAP	54	288	7
TAP	55	0	5
TAP	55	48	6
TAP	55	96	7
TAP	55	144	0
TAP	55	192	1
TAP	55	192	5
TAP	55	288	2
TAP	55	288	6
TAP	56	0	1
TAP	56	48	1
TAP	56	96	7
TAP	56	144	7
TAP	56	192	0
TAP	56	192	6
TAP	56	240	1
TAP	56	240	5
XTP	56	288	2
XTP	56	288	4
TAP	57	0	6
TAP	57	48	6
TAP	57	96	0
TAP	57	144	0
TAP	57	192	1
TAP	57	192	7
TAP	57	240	2
TAP	57	240	6
XTP	57	288	3
XTP	57	288	5
TAP	58	0	6
TAP	58	48	5
TAP	58	96	1
TAP	58	144	2
TAP	58	192	5
TAP	58	240	0
TAP	58	240	4
TAP	58	288	0
TAP	58	288	4
TAP	59	0	2
TAP	59	48	2
STR	59	96	3
SI_	59	96	3	96	48	7
STR	59	96	4
SI_	59	96	4	96	48	0
XTP	59	288	1
XTP	59	288	6
TAP	60	0	5
TAP	60	48	5
TAP	60	96	2
TAP	60	144	2
TAP	60	192	1
TAP	60	192	4
TAP	60	288	3
TAP	60	288	6
XHO	61	0	0	288
BRK	61	288	7
HLD	62	0	5	96
TAP	62	96	4
TAP	62	144	3
TAP	62	192	2
TAP	62	288	1
TAP	62	288	3
HLD	63	0	6	96
TAP	63	96	4
TAP	63	192	6
TAP	63	192	7
TAP	63	240	6
TAP	63	240	7
TAP	63	288	0
TAP	63	288	5
HLD	64	0	2	96
TAP	64	96	3
TAP	64	144	4
TAP	64	192	5
TAP	64	288	4
TAP	64	288	6
HLD	65	0	1	96
TAP	65	96	3
TAP	65	192	0
TAP	65	192	1
TAP	65	240	0
TAP	65	240	1
TAP	65	288	2
TAP	65	288	7
HLD	66	0	6	96
TAP	66	96	4
TAP	66	144	3
HLD	66	192	2	96
TAP	66	288	3
HLD	67	0	6	96
TAP	67	96	7
TAP	67	192	4
TAP	67	192	5
TAP	67	240	4
TAP	67	240	5
TAP	67	288	3
TAP	67	288	6
HLD	68	0	1	96
TAP	68	96	3
TAP	68	144	4
HLD	68	192	5	96
TAP	68	288	4
HLD	69	0	1	96
TAP	69	96	3
TAP	69	192	2
TAP	69	192	4
TAP	69	240	2
TAP	69	240	4
STR	69	288	1
SCL	69	288	1	96	192	6
STR	69	288	5
SCL	69	288	5	96	192	2

T_REC_TAP	295
T_REC_BRK	6
T_REC_XTP	26
T_REC_HLD	42
T_REC_XHO	2
T_REC_STR	8
T_REC_BST	0
T_REC_XST	2
T_REC_TTP	6
T_REC_THO	0
T_REC_SLD	10
T_REC_ALL	397
T_NUM_TAP	337
T_NUM_BRK	6
T_NUM_HLD	44
T_NUM_SLD	10
T_NUM_ALL	397
T_JUDGE_TAP	343
T_JUDGE_HLD	210
T_JUDGE_SLD	10
T_JUDGE_ALL	563
TTM_EACHPAIRS	88
TTM_SCR_TAP	168500
TTM_SCR_BRK	15600
TTM_SCR_HLD	44000
TTM_SCR_SLD	15000
TTM_SCR_ALL	243100
TTM_SCR_S	235250
TTM_SCR_SS	242500
TTM_RAT_ACV	10024

