VERSION	0.00.00	1.03.00
FES_MODE	0
BPM_DEF	120.000	120.000	120.000	120.000
MET_DEF	4	4
RESOLUTION	384
CLK_DEF	384
COMPATIBLE_CODE	MA2

BPM	0	0	120.000
MET	0	0	4	4

STR	2	0	5
SCL	2	0	5	96	144	2
STR	3	0	1
SUR	3	0	1	96	144	5
STR	4	0	6
SUL	4	0	6	96	144	2
STR	5	0	1
SCR	5	0	1	96	144	4
HLD	6	0	5	192
HLD	6	192	4	192
HLD	7	0	3	192
TAP	7	192	2
HLD	8	0	1	192
HLD	8	192	0	192
HLD	9	0	7	192
TAP	9	192	6
TAP	10	0	5
TAP	10	96	5
TAP	10	192	4
TAP	10	288	4
TAP	11	0	3
TAP	11	96	3
TAP	11	192	2
TAP	11	192	4
TAP	12	0	1
TAP	12	96	1
TAP	12	192	0
TAP	12	288	0
TAP	13	0	7
TAP	13	96	0
TAP	13	96	7
TAP	13	192	1
TAP	13	192	6
TTP	14	0	0	E	0	L1
TTP	14	192	1	E	0	L1
TTP	15	0	2	E	0	L1
TTP	15	192	3	E	0	L1
TTP	16	0	4	E	0	L1
TTP	16	192	5	E	0	L1
TTP	17	0	6	E	0	L1
TTP	17	192	7	E	0	L1
TTP	18	0	0	E	0	L1
TTP	18	192	7	E	0	L1
TTP	19	0	6	E	0	L1
TTP	19	192	5	E	0	L1
TTP	20	0	4	E	0	L1
TTP	20	192	3	E	0	L1
TTP	21	0	2	E	0	L1
TTP	21	192	1	E	0	L1
XTP	22	0	6
TAP	22	96	6
TAP	22	192	7
TAP	23	0	1
TAP	23	96	1
TAP	23	192	0
TAP	24	0	6
TAP	24	96	6
TAP	24	192	7
TAP	25	0	0
TAP	25	96	0
TAP	25	192	1
TAP	25	192	7
TAP	26	0	2
TAP	26	96	2
TAP	26	192	3
TAP	26	288	3
XTP	27	0	3
XTP	27	0	4
XTP	27	96	2
XTP	27	96	5
XTP	27	192	1
XTP	27	192	6
STR	28	0	7
SCL	28	0	7	96	144	4
STR	29	0	3
SCL	29	0	3	96	144	0
BRK	30	0	6
TAP	30	96	6
TAP	30	192	6
TAP	30	192	7
TAP	30	288	6
TAP	30	288	7
TAP	31	0	5
TAP	31	96	4
TAP	31	192	3
TAP	31	192	5
TAP	32	0	2
TAP	32	96	2
TAP	32	192	2
TAP	32	192	3
TAP	32	288	2
TAP	32	288	3
TAP	33	0	1
TAP	33	96	0
TAP	33	192	1
TAP	33	192	7
BRK	34	0	1
TAP	34	96	1
TAP	34	192	0
TAP	34	192	1
TAP	34	288	0
TAP	34	288	1
TAP	35	0	2
TAP	35	96	3
TAP	35	192	2
TAP	35	192	4
TAP	36	0	5
TAP	36	96	5
TAP	36	192	6
TAP	36	288	6
STR	37	0	0
SCR	37	0	0	96	144	3
STR	37	0	7
SCL	37	0	7	96	144	4
BRK	38	0	5
TAP	38	96	5
TAP	38	192	4
TAP	38	192	5
TAP	39	0	2
TAP	39	96	2
TAP	39	192	2
TAP	39	192	3
TAP	40	0	5
TAP	40	96	5
TAP	40	192	4
TAP	40	288	4
TAP	41	0	3
TAP	41	96	3
TAP	41	192	2
TAP	41	192	4
TAP	42	0	1
TAP	42	96	1
TAP	42	192	0
TAP	42	192	1
TAP	43	0	6
TAP	43	96	6
TAP	43	192	6
TAP	43	192	7
XTP	44	0	1
XTP	44	96	0
XTP	44	192	7
XTP	44	288	6
TAP	45	0	5
TAP	45	96	3
TAP	45	96	4
TAP	45	192	2
TAP	45	192	5
TTP	46	0	4	E	0	L1
TTP	46	192	3	E	0	L1
TTP	47	0	2	E	0	L1
TTP	47	192	1	E	0	L1
TTP	48	0	0	E	0	L1
TTP	48	192	7	E	0	L1
TTP	49	0	6	E	0	L1
TTP	49	192	5	E	0	L1
XHO	50	0	5	96
TAP	50	96	4
TAP	50	192	4
HLD	51	0	2	96
TAP	51	96	3
TAP	51	192	3
HLD	52	0	5	96
TAP	52	96	4
TAP	52	192	4
STR	53	0	3
SCL	53	0	3	96	144	0
STR	53	0	4
SCR	53	0	4	96	144	7
BRK	54	0	6
TAP	54	96	6
TAP	54	96	7
TAP	54	192	6
TAP	54	288	6
TAP	54	288	7
TAP	55	0	5
TAP	55	96	4
TAP	55	96	5
TAP	55	192	3
TAP	55	192	6
TAP	56	0	2
TAP	56	96	2
TAP	56	96	3
TAP	56	192	2
TAP	56	288	2
TAP	56	288	3
TAP	57	0	1
TAP	57	96	0
TAP	57	96	7
TAP	57	192	1
TAP	57	192	6
BRK	58	0	1
TAP	58	96	0
TAP	58	96	1
TAP	58	192	1
TAP	58	288	0
TAP	58	288	1
TAP	59	0	2
TAP	59	96	2
TAP	59	96	3
TAP	59	192	1
TAP	59	192	4
TAP	60	0	5
TAP	60	96	5
TAP	60	192	6
TAP	60	288	7
TAP	61	0	0
STR	61	0	7
SI_	61	0	7	96	144	3
BRK	62	0	2
TAP	62	96	2
TAP	62	192	3
TAP	62	288	3
TAP	63	0	4
TAP	63	96	4
TAP	63	192	3
TAP	63	192	5
TAP	64	0	6
TAP	64	96	6
TAP	64	192	7
TAP	64	288	7
TAP	65	0	0
TAP	65	96	0
TAP	65	192	1
TAP	65	192	7
TAP	66	0	1
TAP	66	96	1
TAP	66	192	0
TAP	66	288	0
TAP	67	0	7
TAP	67	96	7
TAP	67	192	0
TAP	67	192	6
TAP	68	0	5
TAP	68	96	5
TAP	68	192	4
TAP	68	288	4
TAP	69	0	3
TAP	69	96	2
TAP	69	192	1
TAP	69	288	0
STR	70	0	0
SXL	70	0	0	96	384	3
STR	70	0	7
SXR	70	0	7	96	384	4

T_REC_TAP	168
T_REC_BRK	6
T_REC_XTP	11
T_REC_HLD	8
T_REC_XHO	1
T_REC_STR	13
T_REC_BST	0
T_REC_XST	0
T_REC_TTP	24
T_REC_THO	0
T_REC_SLD	13
T_REC_ALL	244
T_NUM_TAP	216
T_NUM_BRK	6
T_NUM_HLD	9
T_NUM_SLD	13
T_NUM_ALL	244
T_JUDGE_TAP	222
T_JUDGE_HLD	30
T_JUDGE_SLD	13
T_JUDGE_ALL	265
TTM_EACHPAIRS	42
TTM_SCR_TAP	108000
TTM_SCR_BRK	15600
TTM_SCR_HLD	9000
TTM_SCR_SLD	19500
TTM_SCR_ALL	152100
TTM_SCR_S	147000
TTM_SCR_SS	151500
TTM_RAT_ACV	10039

