VERSION	0.00.00	1.03.00
FES_MODE	0
BPM_DEF	128.000	128.000	128.000	128.000
MET_DEF	4	4
RESOLUTION	384
CLK_DEF	384
COMPATIBLE_CODE	MA2

BPM	0	0	128.000
MET	0	0	4	4

TTP	2	0	3	B	0	M1
TTP	2	0	5	E	0	M1
TTP	2	96	1	E	0	M1
TTP	2	96	7	B	0	M1
TTP	2	192	3	E	0	M1
TTP	2	192	4	B	0	M1
TTP	2	288	0	B	0	M1
TTP	2	288	7	E	0	M1
TTP	3	0	3	B	0	M1
TTP	3	0	5	E	0	M1
TTP	3	96	1	E	0	M1
TTP	3	96	7	B	0	M1
TTP	3	192	3	E	0	M1
TTP	3	192	4	B	0	M1
TTP	3	288	0	C	0	M1
TTP	3	288	2	E	0	M1
TTP	3	288	6	E	0	M1
XTP	4	0	0
XTP	4	0	7
XTP	4	48	0
XTP	4	48	7
XTP	4	96	1
XTP	4	96	6
XTP	4	144	3
XTP	4	144	4
XHO	4	192	2	96
XHO	4	192	5	96
TAP	5	0	2
TAP	5	0	4
TAP	5	48	1
TAP	5	96	3
TAP	5	96	5
TAP	5	144	6
TAP	5	192	2
TAP	5	192	4
TAP	5	240	1
TAP	5	240	3
TAP	5	288	0
TAP	5	288	4
TAP	5	336	1
TAP	5	336	3
TAP	6	0	2
TAP	6	0	4
TAP	6	48	6
STR	6	96	3
SSR	6	96	3	96	96	7
TAP	6	96	5
TAP	6	144	1
XTP	6	192	0
XTP	6	240	0
XTP	6	288	1
TAP	6	336	2
TAP	7	0	3
TAP	7	0	7
TAP	7	48	5
TAP	7	96	0
TAP	7	96	4
TAP	7	144	2
TAP	7	192	3
TAP	7	192	7
TAP	7	240	5
TAP	7	288	2
TAP	7	288	4
TAP	7	336	1
TAP	8	0	0
TAP	8	0	5
TAP	8	48	6
TAP	8	48	7
STR	8	72	6
SCL	8	72	6	96	48	3
TAP	8	72	7
TAP	8	120	0
TAP	8	120	5
XTP	8	168	6
XTP	8	168	7
TAP	8	240	1
TAP	8	288	0
TAP	8	288	4
TAP	9	0	3
TAP	9	0	6
TAP	9	48	5
TAP	9	96	1
TAP	9	96	4
TAP	9	144	2
TAP	9	192	3
TAP	9	192	5
TAP	9	240	6
TAP	9	288	2
TAP	9	288	4
TAP	9	336	1
HLD	10	0	5	48
HLD	10	48	4	48
HLD	10	96	3	48
HLD	10	144	2	48
HLD	10	192	6	48
HLD	10	240	4	48
HLD	10	288	3	48
TAP	10	336	1
TAP	11	0	0
TAP	11	0	4
TAP	11	48	1
TAP	11	96	2
TAP	11	96	6
TAP	11	144	5
TAP	11	192	1
TAP	11	192	4
TAP	11	240	5
TAP	11	288	2
TAP	11	288	6
TAP	11	336	1
TAP	11	336	7
HLD	12	0	2	24
HLD	12	0	6	24
HLD	12	48	2	24
HLD	12	48	6	24
HLD	12	96	1	24
HLD	12	96	5	24
HLD	12	144	1	24
HLD	12	144	5	24
HLD	12	192	2	24
HLD	12	192	4	24
HLD	12	240	2	24
HLD	12	240	4	24
HLD	12	288	3	24
HLD	12	288	5	24
HLD	12	336	3	24
HLD	12	336	5	24
TTP	13	0	0	C	1	M1
TTP	13	0	2	B	0	M1
TTP	13	0	6	B	0	M1
XTP	13	288	3
XTP	13	288	4
TAP	14	0	1
TAP	14	0	5
TAP	14	48	4
TAP	14	96	2
TAP	14	144	3
TAP	14	192	4
TAP	14	192	5
TAP	14	240	6
TAP	14	288	2
TAP	14	288	7
TAP	14	336	1
TAP	15	0	0
TAP	15	0	6
TAP	15	48	1
TAP	15	96	2
TAP	15	96	4
TAP	15	144	5
TAP	15	192	4
TAP	15	192	6
TAP	15	240	3
TAP	15	288	2
TAP	15	288	7
TAP	15	336	1
TAP	16	0	0
TAP	16	0	5
TAP	16	48	6
TAP	16	96	2
TAP	16	96	7
TAP	16	144	3
TAP	16	192	4
TAP	16	192	6
TAP	16	240	5
TAP	16	288	2
TAP	16	336	1
TAP	17	0	0
TAP	17	0	4
TAP	17	48	0
TAP	17	48	4
TAP	17	96	1
TAP	17	144	2
TAP	17	192	3
TAP	17	192	5
TAP	17	240	6
STR	17	288	2
SI_	17	288	2	96	48	0
TAP	17	336	2
TAP	18	0	4
TAP	18	48	4
TAP	18	96	5
TAP	18	144	6
TAP	18	192	0
TAP	18	192	7
TAP	18	240	0
TAP	18	240	7
TAP	18	288	1
TAP	18	336	2
TAP	19	0	4
TAP	19	0	6
TAP	19	48	7
TAP	19	96	2
TAP	19	144	1
TAP	19	144	4
TAP	19	192	1
TAP	19	192	4
TAP	19	240	5
STR	19	288	3
SI_	19	288	3	96	48	1
TAP	19	336	3
TAP	20	0	4
TAP	20	48	5
TAP	20	96	0
TAP	20	144	0
TAP	20	192	1
TAP	20	192	5
TAP	20	240	6
STR	20	288	7
SSR	20	288	7	96	96	3
TAP	20	336	7
XTP	21	0	0
XTP	21	168	2
XTP	21	168	4
XTP	21	216	2
XTP	21	216	4
XTP	21	264	1
XTP	21	264	5
BRK	21	288	1
BRK	21	288	5
TAP	22	0	6
TAP	22	48	4
TAP	22	48	5
TAP	22	96	4
TAP	22	96	5
TAP	22	144	3
TAP	22	192	2
TAP	22	192	6
TAP	22	240	7
TAP	22	264	7
TAP	22	288	0
TAP	22	336	1
TAP	23	0	2
TAP	23	0	6
TAP	23	48	5
TAP	23	96	1
TAP	23	96	4
TAP	23	144	2
TAP	23	192	3
TAP	23	192	5
TAP	23	240	6
TAP	23	264	6
TAP	23	288	4
TAP	23	336	3
TAP	24	0	3
TAP	24	0	5
TAP	24	48	6
TAP	24	96	4
TAP	24	96	6
TAP	24	144	5
TAP	24	192	2
TAP	24	192	4
TAP	24	240	1
TAP	24	264	1
TAP	24	288	3
TAP	24	336	4
TAP	25	0	3
TAP	25	0	4
TAP	25	48	2
TAP	25	48	5
TAP	25	96	2
STR	25	96	5
SCR	25	96	5	96	48	7
TAP	25	144	3
TAP	25	192	4
TAP	25	288	7
TAP	25	336	7
TAP	26	0	0
TAP	26	48	1
TAP	26	48	6
TAP	26	96	5
TAP	26	144	2
TAP	26	168	2
TAP	26	192	4
TAP	26	240	5
TAP	26	288	3
TAP	26	288	6
TAP	26	336	3
TAP	26	336	6
TAP	27	0	2
TAP	27	48	1
TAP	27	48	5
STR	27	96	1
SI_	27	96	1	96	48	5
TAP	27	96	5
TAP	27	144	6
TAP	27	192	7
TAP	27	240	7
TAP	27	288	0
TAP	27	288	7
TAP	27	336	0
TAP	27	336	7
TAP	28	0	5
TAP	28	48	2
TAP	28	48	4
TAP	28	96	1
TAP	28	120	1
TAP	28	144	3
XTP	28	192	0
XTP	28	240	1
XST	28	288	2
SI_	28	288	2	96	48	6
STR	28	288	5
SI_	28	288	5	96	48	0
TAP	28	336	3
TAP	28	336	4
TTP	29	0	0	C	1	M1
XHO	29	168	7	48
XTP	29	216	0
XTP	29	240	0
BRK	29	288	2
BRK	29	288	6
STR	30	0	1
SCL	30	0	1	96	48	7
TAP	30	48	1
TAP	30	96	3
TAP	30	144	4
STR	30	192	5
SCL	30	192	5	96	48	3
TAP	30	240	5
TAP	30	288	7
TAP	30	336	0
STR	31	0	1
SCL	31	0	1	96	48	7
TAP	31	48	1
TAP	31	96	3
TAP	31	144	4
STR	31	192	5
SCL	31	192	5	96	48	3
TAP	31	240	5
TAP	31	288	2
TAP	31	336	2
STR	32	0	1
SCL	32	0	1	96	48	7
TAP	32	48	1
TAP	32	96	3
TAP	32	144	4
STR	32	192	5
SCL	32	192	5	96	48	3
TAP	32	240	5
TAP	32	288	0
HLD	32	336	0	96
BRK	33	48	3
BRK	33	120	4
BRK	33	120	6
TTP	33	192	0	C	1	M1
TTP	33	192	1	B	0	M1
TTP	33	192	5	B	0	M1
XTP	33	288	7
STR	34	0	6
SCR	34	0	6	96	48	1
TAP	34	48	6
TAP	34	96	4
TAP	34	144	3
STR	34	192	2
SCR	34	192	2	96	48	5
TAP	34	240	2
TAP	34	288	7
HLD	35	0	6	48
HLD	35	48	5	48
HLD	35	96	4	48
HLD	35	144	3	48
HLD	35	192	5	48
HLD	35	240	4	48
TAP	35	288	3
STR	36	0	4
SI_	36	0	4	96	48	6
TAP	36	48	5
STR	36	96	3
SI_	36	96	3	96	48	1
TAP	36	144	2
STR	36	192	4
SI_	36	192	4	96	48	0
TAP	36	240	5
STR	36	288	3
SCL	36	288	3	96	192	4
TAP	36	336	2
TTP	37	0	0	C	1	M1
XTP	37	192	7
TAP	37	240	7
TAP	37	288	0
TAP	37	336	0
XTP	38	0	1
XTP	38	0	3
XTP	38	48	3
XTP	38	48	4
XTP	38	96	4
XTP	38	96	6
XTP	38	144	0
XTP	38	144	7
XTP	38	192	1
XTP	38	192	6
BRK	38	288	0
BRK	38	288	7
TAP	39	0	4
STR	39	0	6
SI_	39	0	6	96	48	2
TAP	39	48	0
TAP	39	96	0
STR	39	144	1
SI_	39	144	1	96	48	5
TAP	39	192	7
TAP	39	240	7
TAP	39	288	6
TAP	39	336	0
TAP	39	336	6
TAP	40	0	0
TAP	40	0	6
STR	40	48	2
SI_	40	48	2	96	48	0
STR	40	48	4
SI_	40	48	4	96	48	6
TAP	40	96	1
TAP	40	96	5
XTP	40	144	2
XTP	40	144	4
TAP	40	240	0
TAP	40	240	7
TAP	40	288	0
TAP	40	288	7
TAP	40	336	2
TAP	40	336	6
TAP	41	0	4
STR	41	0	5
SI_	41	0	5	96	48	1
TAP	41	48	0
TAP	41	96	0
STR	41	144	2
SI_	41	144	2	96	48	6
TAP	41	192	7
TAP	41	240	7
TAP	41	288	5
TAP	41	336	5
TAP	42	0	1
TAP	42	0	5
TAP	42	48	2
TAP	42	48	6
TAP	42	72	2
TAP	42	72	6
HLD	42	120	1	48
TAP	42	120	7
TAP	42	168	6
TAP	42	216	3
TAP	42	216	5
TAP	42	240	3
TAP	42	240	5
BRK	42	288	2
BRK	42	288	6
BRK	42	336	2
BRK	42	336	6
STR	43	0	7
SXR	43	0	7	96	96	7
TAP	43	48	7
TAP	43	96	0
TAP	43	144	0
STR	43	192	2
SCR	43	192	2	96	48	5
TAP	43	240	2
TAP	43	288	6
TAP	43	336	7
TAP	44	0	0
TAP	44	0	7
XTP	44	48	1
XTP	44	48	3
XTP	44	96	4
XTP	44	96	6
XTP	44	144	1
XTP	44	144	2
XTP	44	192	5
XTP	44	192	6
TAP	44	240	0
TAP	44	240	7
TAP	44	288	3
TAP	44	288	5
TAP	44	336	2
TAP	44	336	4
TAP	45	0	1
TAP	45	0	5
TAP	45	48	2
TAP	45	48	3
TAP	45	96	2
TAP	45	96	6
TAP	45	144	4
TAP	45	144	5
TAP	45	192	6
STR	45	240	3
SCR	45	240	3	96	96	7
TAP	45	240	5
TAP	45	288	2
TAP	45	288	4
TAP	45	336	1
XTP	46	0	0
XTP	46	48	0
XTP	46	96	1
XTP	46	96	7
XTP	46	144	6
XTP	46	168	4
XTP	46	192	5
XTP	46	240	2
XTP	46	240	4
BRK	46	288	0
BRK	46	288	6
HLD	47	0	3	24
HLD	47	0	5	24
HLD	47	48	3	24
HLD	47	48	5	24
HLD	47	96	2	24
HLD	47	96	4	24
HLD	47	144	2	24
HLD	47	144	4	24
HLD	47	192	1	24
HLD	47	192	5	24
HLD	47	240	2	24
HLD	47	240	6	24
HLD	47	288	3	24
HLD	47	288	5	24
HLD	47	336	2	24
HLD	47	336	6	24
HLD	48	0	3	24
HLD	48	0	5	24
HLD	48	48	3	24
HLD	48	48	5	24
HLD	48	96	2	24
HLD	48	96	4	24
HLD	48	144	2	24
HLD	48	144	4	24
STR	48	192	3
SV_	48	192	3	96	48	0
STR	48	192	5
SV_	48	192	5	96	48	0
TAP	48	240	2
TAP	48	240	6
TAP	48	288	3
TAP	48	288	5
BRK	49	0	1
BRK	49	0	7
BRK	49	48	1
BRK	49	48	7
BRK	49	96	2
BRK	49	96	6
BRK	49	144	3
BRK	49	144	5
HLD	49	192	2	96
BST	49	192	4
SI_	49	192	4	96	48	0
XTP	50	0	0
TAP	50	0	2
TAP	50	48	1
TAP	50	96	0
TAP	50	96	6
TAP	50	144	7
TAP	50	192	0
TAP	50	192	1
TAP	50	240	2
TAP	50	288	0
TAP	50	288	7
TAP	50	336	6
TAP	51	0	5
TAP	51	0	7
TAP	51	48	6
TAP	51	96	1
TAP	51	96	7
TAP	51	144	0
TAP	51	192	6
TAP	51	192	7
TAP	51	240	5
TAP	51	288	0
TAP	51	288	7
TAP	51	336	1
TAP	52	0	0
TAP	52	0	1
TAP	52	48	2
TAP	52	96	0
TAP	52	96	2
TAP	52	144	3
TAP	52	192	6
TAP	52	192	7
TAP	52	240	5
TAP	52	288	5
TAP	52	288	7
TAP	52	336	4
TAP	53	0	3
TAP	53	48	2
TAP	53	96	1
TAP	53	96	5
TAP	53	144	1
TAP	53	144	5
TAP	53	192	4
TAP	53	240	4
TAP	53	288	2
TAP	53	288	6
TAP	54	0	1
TAP	54	0	7
TAP	54	48	0
TAP	54	96	6
TAP	54	96	7
TAP	54	144	5
TAP	54	192	0
TAP	54	192	7
TAP	54	240	1
TAP	54	288	0
TAP	54	288	2
TAP	54	336	1
TAP	55	0	0
TAP	55	0	6
TAP	55	48	7
TAP	55	96	0
TAP	55	96	1
TAP	55	144	2
TAP	55	192	0
TAP	55	192	7
TAP	55	240	6
TAP	55	288	5
TAP	55	288	7
TAP	55	336	6
TAP	56	0	1
TAP	56	0	7
TAP	56	48	2
TAP	56	48	6
TAP	56	96	3
STR	56	96	5
SCR	56	96	5	96	48	0
TAP	56	144	2
HLD	56	192	1	384
TTP	57	0	4	E	0	M1
TTP	57	96	0	C	0	M1
STR	57	192	0
SF_	57	192	0	96	48	4
TAP	57	288	0
BRK	58	0	2
BRK	58	0	7
TAP	58	96	1
TAP	58	96	5
TAP	58	144	7
TAP	58	192	3
TAP	58	192	6
TAP	58	240	3
TAP	58	240	6
TAP	58	288	2
TAP	58	288	4
TAP	58	336	2
TAP	58	336	4
TAP	59	0	3
TAP	59	0	5
TAP	59	48	7
TAP	59	96	2
TAP	59	96	4
TAP	59	144	0
TAP	59	192	3
TAP	59	192	5
TAP	59	240	2
TAP	59	240	6
XST	59	288	4
SCL	59	288	4	96	240	4
SCR	59	288	4	96	240	4
TAP	59	336	3
TAP	59	336	5
BRK	60	0	4
BRK	61	0	0
BRK	61	0	7
BRK	61	48	2
BRK	61	48	5
BRK	61	96	3
BRK	61	96	4
BST	61	144	1
SLR	61	144	1	96	84	7
BST	61	144	6
SLL	61	144	6	96	84	0
TTP	61	288	0	C	1	M1
TTP	63	60	5	E	0	M1
TTP	63	72	4	E	0	M1
TTP	63	84	3	E	0	M1

T_REC_TAP	413
T_REC_BRK	32
T_REC_XTP	58
T_REC_HLD	57
T_REC_XHO	3
T_REC_STR	33
T_REC_BST	3
T_REC_XST	2
T_REC_TTP	31
T_REC_THO	0
T_REC_SLD	39
T_REC_ALL	671
T_NUM_TAP	537
T_NUM_BRK	35
T_NUM_HLD	60
T_NUM_SLD	39
T_NUM_ALL	671
T_JUDGE_TAP	572
T_JUDGE_HLD	71
T_JUDGE_SLD	39
T_JUDGE_ALL	682
TTM_EACHPAIRS	190
TTM_SCR_TAP	268500
TTM_SCR_BRK	91000
TTM_SCR_HLD	60000
TTM_SCR_SLD	58500
TTM_SCR_ALL	478000
TTM_SCR_S	460300
TTM_SCR_SS	474500
TTM_RAT_ACV	10073

