VERSION	0.00.00	1.03.00
FES_MODE	0
BPM_DEF	128.000	128.000	128.000	128.000
MET_DEF	4	4
RESOLUTION	384
CLK_DEF	384
COMPATIBLE_CODE	MA2

BPM	0	0	128.000
MET	0	0	4	4

HLD	2	0	3	192
TAP	2	96	4
HLD	2	192	4	192
TAP	2	288	3
HLD	3	0	3	192
TAP	3	96	4
HLD	3	192	4	96
TAP	3	288	3
TAP	4	0	3
TAP	4	0	4
TAP	4	48	3
TAP	4	48	4
TAP	4	96	2
TAP	4	96	5
TAP	4	144	2
TAP	4	144	5
HLD	4	192	1	96
HLD	4	192	6	96
TAP	5	0	2
TAP	5	48	2
TAP	5	96	3
TAP	5	192	7
TAP	5	240	7
TAP	5	288	0
TAP	5	288	6
TAP	6	0	5
TAP	6	48	5
TAP	6	96	4
TAP	6	192	0
TAP	6	240	0
TAP	6	288	1
TAP	6	288	7
TAP	7	0	2
TAP	7	48	2
TAP	7	96	3
TAP	7	192	5
TAP	7	240	5
STR	7	288	4
SUL	7	288	4	96	144	3
HLD	7	288	6	96
XTP	8	288	1
XTP	8	288	6
TAP	9	0	5
TAP	9	48	5
TAP	9	96	4
TAP	9	192	0
TAP	9	240	0
TAP	9	288	1
TAP	9	288	7
TAP	10	0	2
TAP	10	48	2
TAP	10	96	4
TAP	10	144	4
TAP	10	192	3
TAP	10	240	3
TAP	10	288	5
TAP	11	0	6
TAP	11	48	6
TAP	11	96	4
TAP	11	192	1
TAP	11	240	1
TAP	11	288	3
XTP	12	0	0
XTP	12	0	7
XTP	12	48	0
XTP	12	48	7
XTP	12	96	0
XTP	12	96	7
XTP	12	144	0
XTP	12	144	7
XHO	12	192	0	96
XHO	12	192	7	96
TTP	13	0	0	C	1	M1
TTP	13	0	1	B	0	M1
TTP	13	0	2	B	0	M1
TTP	13	0	5	B	0	M1
TTP	13	0	6	B	0	M1
TAP	14	48	3
TAP	14	48	5
TAP	14	144	2
TAP	14	144	4
TAP	14	240	3
TAP	14	240	5
TAP	14	336	3
TAP	14	336	5
TAP	15	48	2
TAP	15	48	4
TAP	15	144	3
TAP	15	144	5
TAP	15	240	2
TAP	15	240	4
TAP	15	336	2
TAP	15	336	4
TAP	16	48	3
TAP	16	48	5
TAP	16	144	2
TAP	16	144	4
TAP	16	240	3
TAP	16	240	5
TAP	16	336	3
TAP	16	336	5
TAP	17	48	2
TAP	17	48	4
TAP	17	144	3
TAP	17	144	5
TAP	17	240	7
TAP	17	288	7
TAP	18	48	3
TAP	18	48	5
TAP	18	144	1
TAP	18	144	3
TAP	18	240	3
TAP	18	240	6
TAP	18	336	4
TAP	18	336	5
TAP	19	48	2
TAP	19	48	4
TAP	19	144	4
TAP	19	144	6
TAP	19	240	1
TAP	19	240	4
TAP	19	336	2
TAP	19	336	3
TAP	20	48	3
TAP	20	48	5
TAP	20	144	1
TAP	20	144	3
TAP	20	240	3
TAP	20	240	6
TAP	20	336	0
TAP	20	336	7
BRK	21	0	0
BRK	21	0	7
XTP	21	168	0
XTP	21	168	7
XTP	21	216	1
XTP	21	216	6
XTP	21	264	2
XTP	21	264	5
XTP	21	288	2
XTP	21	288	5
TAP	22	0	4
TAP	22	48	5
TAP	22	96	4
TAP	22	96	6
TAP	22	144	4
TAP	22	144	6
TAP	22	192	3
TAP	22	240	2
TAP	22	288	1
TAP	22	288	3
TAP	22	336	1
TAP	22	336	3
TAP	23	0	4
TAP	23	48	5
TAP	23	96	4
TAP	23	96	6
TAP	23	144	4
TAP	23	144	6
TAP	23	192	3
TAP	23	240	2
TAP	23	288	1
TAP	23	288	3
TAP	23	336	1
TAP	23	336	3
TAP	24	0	0
TAP	24	48	7
TAP	24	96	0
TAP	24	96	6
TAP	24	144	0
TAP	24	144	6
TAP	24	192	7
TAP	24	240	0
TAP	24	288	1
TAP	24	288	7
TAP	24	336	1
TAP	24	336	7
TAP	25	0	2
TAP	25	48	3
TAP	25	96	4
TAP	25	144	5
TAP	25	192	2
TAP	25	192	6
TAP	25	288	1
TAP	25	336	1
TAP	26	0	7
TAP	26	48	6
TAP	26	96	5
TAP	26	96	7
TAP	26	144	5
TAP	26	144	7
TAP	26	192	0
TAP	26	240	1
TAP	26	288	0
TAP	26	288	2
TAP	26	336	0
TAP	26	336	2
TAP	27	0	3
TAP	27	48	3
TAP	27	96	4
TAP	27	144	4
TAP	27	192	2
TAP	27	192	5
TAP	27	288	4
TAP	27	336	4
TAP	28	0	3
TAP	28	48	2
TAP	28	96	1
TAP	28	96	3
TAP	28	144	1
TAP	28	144	3
TAP	28	192	4
TAP	28	240	5
STR	28	288	5
SI_	28	288	5	96	96	1
XHO	29	168	7	72
XTP	29	240	0
XTP	29	288	1
XTP	29	288	6
STR	30	0	5
SCL	30	0	5	96	96	2
HLD	30	192	0	96
TAP	30	288	3
TAP	30	336	3
STR	31	0	4
SCR	31	0	4	96	96	7
HLD	31	192	0	96
TAP	31	288	7
TAP	31	336	7
STR	32	0	2
SCR	32	0	2	96	96	5
HLD	32	192	7	96
TAP	32	288	4
TAP	32	336	4
XTP	33	48	4
XTP	33	48	6
XTP	33	120	1
XTP	33	120	3
XTP	33	192	0
XTP	33	192	7
XTP	33	288	1
XTP	33	288	6
STR	34	0	2
SCR	34	0	2	96	96	5
HLD	34	192	7	96
TAP	34	288	4
HLD	35	0	1	96
HLD	35	96	3	96
HLD	35	192	5	96
TAP	35	288	7
TAP	35	336	7
TAP	36	0	0
TAP	36	48	0
TAP	36	96	6
TAP	36	144	6
TAP	36	192	1
TAP	36	240	1
STR	36	288	7
SF_	36	288	7	96	96	3
XHO	37	192	1	96
XHO	37	192	6	96
XTP	38	0	0
XTP	38	0	7
XTP	38	48	0
XTP	38	48	7
XTP	38	96	1
XTP	38	96	6
XTP	38	144	2
XTP	38	144	5
XTP	38	192	3
XTP	38	192	4
BRK	38	288	0
BRK	38	288	7
TAP	39	0	3
TAP	39	0	6
XTP	39	48	7
XTP	39	96	7
TAP	39	144	1
TAP	39	144	4
XTP	39	192	0
XTP	39	240	0
TAP	39	288	5
TAP	39	336	4
TAP	40	0	2
TAP	40	0	3
TAP	40	48	2
TAP	40	48	3
TAP	40	96	1
TAP	40	96	4
TAP	40	144	0
TAP	40	144	5
TAP	40	192	6
TAP	40	192	7
TAP	40	240	6
TAP	40	240	7
BRK	40	288	0
BRK	40	288	5
TAP	41	0	1
TAP	41	0	3
XTP	41	48	0
XTP	41	96	0
TAP	41	144	4
TAP	41	144	6
XTP	41	192	7
XTP	41	240	7
TAP	41	288	2
TAP	41	336	3
TAP	42	0	4
TAP	42	0	5
TAP	42	48	4
TAP	42	48	5
TAP	42	96	3
TAP	42	96	6
TAP	42	144	2
TAP	42	144	7
TAP	42	192	0
TAP	42	192	1
TAP	42	240	0
TAP	42	240	1
BRK	42	288	2
BRK	42	288	7
TTP	43	0	2	E	0	M1
TTP	43	48	3	E	0	M1
TTP	43	96	4	E	0	M1
TTP	43	144	5	E	0	M1
XST	43	192	6
SUL	43	192	6	96	96	1
TAP	44	0	0
TAP	44	48	0
XTP	44	96	1
XTP	44	96	7
XTP	44	144	0
XTP	44	144	6
XTP	44	192	1
XTP	44	192	7
XTP	44	240	0
XTP	44	240	6
XTP	44	288	1
XTP	44	288	7
TAP	45	0	6
TAP	45	48	6
TAP	45	96	5
TAP	45	96	7
TAP	45	192	1
TAP	45	240	1
TAP	45	288	0
TAP	45	288	2
TAP	46	0	2
TAP	46	0	3
TAP	46	48	2
TAP	46	48	3
TAP	46	96	1
TAP	46	96	4
TAP	46	192	4
TAP	46	192	5
TAP	46	240	4
TAP	46	240	5
TAP	46	288	3
TAP	46	288	6
TAP	47	0	2
HLD	47	48	2	144
TAP	47	96	3
TAP	47	144	3
TAP	47	192	4
TAP	47	240	4
TAP	47	288	3
TAP	47	288	5
TAP	47	336	3
HLD	47	336	5	144
TAP	48	0	4
TAP	48	48	4
TAP	48	96	3
TAP	48	144	3
TAP	48	192	2
TAP	48	192	4
TAP	48	240	2
TAP	48	240	4
TAP	48	288	1
TAP	48	288	5
XTP	49	0	2
XTP	49	48	3
XTP	49	96	4
XTP	49	144	5
XHO	49	192	6	96
BRK	49	288	0
HLD	50	0	1	48
HLD	50	0	5	48
HLD	50	96	2	48
HLD	50	96	7	48
HLD	50	192	0	48
HLD	50	192	6	48
HLD	50	288	1	48
HLD	50	288	7	48
HLD	51	0	0	48
HLD	51	0	5	48
HLD	51	96	2	48
HLD	51	96	6	48
HLD	51	192	0	48
HLD	51	192	5	48
HLD	51	288	1	48
HLD	51	288	7	48
HLD	52	0	0	48
HLD	52	0	6	48
HLD	52	96	2	48
HLD	52	96	7	48
HLD	52	192	1	48
HLD	52	192	5	48
HLD	52	288	2	48
HLD	52	288	7	48
TAP	53	0	0
TAP	53	0	6
TAP	53	48	0
TAP	53	48	6
TAP	53	96	0
TAP	53	96	6
TAP	53	192	3
TAP	53	192	5
TAP	53	240	3
TAP	53	240	5
TAP	53	288	3
TAP	53	288	5
HLD	54	0	2	48
HLD	54	0	6	48
HLD	54	96	0	48
HLD	54	96	5	48
HLD	54	192	1	48
HLD	54	192	7	48
HLD	54	288	0	48
HLD	54	288	6	48
HLD	55	0	2	48
HLD	55	0	7	48
HLD	55	96	1	48
HLD	55	96	5	48
HLD	55	192	2	48
HLD	55	192	7	48
HLD	55	288	0	48
HLD	55	288	6	48
TAP	56	0	1
TAP	56	0	5
TAP	56	48	1
TAP	56	48	5
TAP	56	96	2
TAP	56	96	4
TAP	56	144	2
TAP	56	144	4
HLD	56	192	3	480
TTP	57	0	4	E	0	M1
TTP	57	96	0	C	0	M1
XTP	57	192	0
XST	57	288	7
SCL	57	288	7	96	288	0
TTP	58	0	0	C	1	M1
TAP	59	0	0
TAP	59	0	1
TAP	59	48	0
TAP	59	48	1
TAP	59	96	2
TAP	59	96	7
TAP	59	192	6
TAP	59	192	7
TAP	59	240	6
TAP	59	240	7
TAP	59	288	0
TAP	59	288	5
HLD	60	0	5	96
HLD	60	96	7	96
HLD	60	192	0	96
TAP	60	288	2
TAP	61	0	3
TAP	61	0	4
TAP	61	48	3
TAP	61	48	4
TAP	61	96	2
TAP	61	96	5
TAP	61	144	1
HLD	61	144	6	672
THO	61	288	0	528	C	1	M1

T_REC_TAP	308
T_REC_BRK	9
T_REC_XTP	62
T_REC_HLD	61
T_REC_XHO	6
T_REC_STR	7
T_REC_BST	0
T_REC_XST	2
T_REC_TTP	12
T_REC_THO	1
T_REC_SLD	9
T_REC_ALL	477
T_NUM_TAP	391
T_NUM_BRK	9
T_NUM_HLD	68
T_NUM_SLD	9
T_NUM_ALL	477
T_JUDGE_TAP	400
T_JUDGE_HLD	133
T_JUDGE_SLD	9
T_JUDGE_ALL	542
TTM_EACHPAIRS	154
TTM_SCR_TAP	195500
TTM_SCR_BRK	23400
TTM_SCR_HLD	68000
TTM_SCR_SLD	13500
TTM_SCR_ALL	300400
TTM_SCR_S	290550
TTM_SCR_SS	299500
TTM_RAT_ACV	10030

