VERSION	0.00.00	1.03.00
FES_MODE	0
BPM_DEF	128.000	128.000	128.000	128.000
MET_DEF	4	4
RESOLUTION	384
CLK_DEF	384
COMPATIBLE_CODE	MA2

BPM	0	0	128.000
MET	0	0	4	4

TAP	2	0	3
TAP	2	96	3
TAP	2	192	3
TAP	3	0	4
TAP	3	96	4
TAP	3	192	4
XTP	4	0	3
XTP	4	0	4
XTP	4	96	3
XTP	4	96	4
XTP	4	192	2
XTP	4	192	5
TAP	5	0	6
TAP	5	96	6
TAP	5	192	7
TAP	5	288	7
TAP	6	0	0
TAP	6	96	0
TAP	6	192	1
TAP	6	192	7
TAP	7	0	2
TAP	7	96	2
TAP	7	192	3
TAP	7	288	3
TAP	8	0	4
TAP	8	96	4
TAP	8	192	3
TAP	8	192	5
TAP	9	0	5
TAP	9	96	5
TAP	9	192	4
TAP	9	288	4
TAP	10	0	3
TAP	10	96	3
TAP	10	192	2
TAP	10	192	4
TAP	11	0	1
TAP	11	96	1
TAP	11	192	0
TAP	11	288	0
TAP	12	0	0
TAP	12	0	7
TAP	12	96	1
TAP	12	96	6
TAP	12	192	2
TAP	12	192	5
TTP	13	0	0	C	1	L1
HLD	14	0	5	96
TAP	14	96	4
TAP	14	192	4
HLD	15	0	2	96
TAP	15	96	3
TAP	15	192	3
HLD	16	0	5	96
TAP	16	96	4
TAP	16	192	4
TAP	17	0	2
TAP	17	96	2
TAP	17	192	3
TAP	17	288	4
HLD	18	0	5	192
TAP	18	192	4
TAP	18	288	3
TAP	19	0	2
TAP	19	96	2
TAP	19	192	2
TAP	19	192	3
TAP	20	0	5
TAP	20	96	5
TAP	20	192	4
TAP	20	288	4
XST	21	0	3
SI_	21	0	3	96	144	0
XST	21	0	4
SI_	21	0	4	96	144	7
TAP	22	0	1
TAP	22	96	1
TAP	22	192	0
TAP	22	192	1
TAP	23	0	6
TAP	23	96	6
TAP	23	192	6
TAP	23	192	7
TAP	24	0	1
TAP	24	96	1
TAP	24	192	0
TAP	24	288	0
TAP	25	0	7
TAP	25	96	7
TAP	25	192	0
TAP	25	192	6
TAP	26	0	5
TAP	26	96	5
TAP	26	192	4
TAP	26	192	5
TAP	27	0	2
TAP	27	96	2
TAP	27	192	2
TAP	27	192	3
TAP	28	0	4
TAP	28	96	4
TAP	28	192	3
TAP	28	288	3
BST	29	0	3
SCL	29	0	3	96	144	0
BST	29	0	4
SCR	29	0	4	96	144	7
STR	30	0	6
SI_	30	0	6	96	144	2
STR	31	0	1
SI_	31	0	1	96	144	4
TAP	32	0	5
TAP	32	96	6
XHO	32	192	7	240
XTP	33	48	0
XTP	33	120	0
XTP	33	120	7
XTP	33	192	0
XTP	33	192	7
STR	34	0	1
SI_	34	0	1	96	144	4
STR	35	0	5
SI_	35	0	5	96	144	0
TAP	36	0	1
TAP	36	96	1
TAP	36	192	2
TAP	36	288	2
STR	37	0	3
SI_	37	0	3	96	144	0
TAP	37	0	4
XTP	38	0	0
XTP	38	0	7
XTP	38	96	0
XTP	38	96	7
XTP	38	192	1
XTP	38	192	6
TAP	39	0	1
TAP	39	96	1
TAP	39	192	0
TAP	39	192	1
TAP	39	288	0
TAP	39	288	1
TAP	40	0	6
TAP	40	96	6
TAP	40	192	6
TAP	40	192	7
TAP	40	288	6
TAP	40	288	7
TAP	41	0	5
TAP	41	96	5
TAP	41	192	4
TAP	41	192	5
TAP	41	288	4
TAP	41	288	5
TAP	42	0	3
TAP	42	96	3
TAP	42	192	2
TAP	42	192	4
TAP	43	0	5
TAP	43	96	5
TAP	43	192	4
TAP	43	192	5
TAP	43	288	4
TAP	43	288	5
TAP	44	0	2
TAP	44	96	2
TAP	44	192	2
TAP	44	192	3
TAP	44	288	2
TAP	44	288	3
TAP	45	0	1
TAP	45	96	0
STR	45	192	0
SCR	45	192	0	96	288	5
TAP	45	192	7
TTP	47	0	7	E	0	L1
TTP	47	96	6	B	0	L1
TTP	47	192	5	B	0	L1
TTP	48	0	1	E	0	L1
TTP	48	96	1	B	0	L1
TTP	48	192	2	B	0	L1
XTP	49	0	4
XTP	49	96	3
XTP	49	96	4
XTP	49	192	2
XTP	49	192	5
TAP	50	0	6
TAP	50	96	6
HLD	50	192	6	96
HLD	50	192	7	96
TAP	51	0	1
TAP	51	96	1
HLD	51	192	0	96
HLD	51	192	1	96
TAP	52	0	6
TAP	52	96	6
TAP	52	192	5
TAP	52	288	5
TAP	53	0	4
TAP	53	96	4
HLD	53	192	3	96
HLD	53	192	5	96
TAP	54	0	2
TAP	54	96	2
HLD	54	192	2	96
HLD	54	192	3	96
TAP	55	0	5
TAP	55	96	5
TAP	55	192	6
TAP	55	288	6
TAP	56	0	0
TAP	56	0	7
TAP	56	96	1
TAP	56	96	6
HLD	56	192	2	192
HLD	56	192	5	192
TAP	57	192	3
TAP	57	192	4
TAP	57	288	3
TAP	57	288	4
BRK	58	0	3
BST	58	0	4
SCR	58	0	4	96	144	7
STR	59	0	0
SCR	59	0	0	96	144	3
STR	60	0	4
SI_	60	0	4	96	144	7
HLD	61	0	0	192
HLD	61	0	7	192
BST	61	288	0
SCR	61	288	0	96	384	6
BRK	61	288	7

T_REC_TAP	156
T_REC_BRK	2
T_REC_XTP	22
T_REC_HLD	16
T_REC_XHO	1
T_REC_STR	8
T_REC_BST	4
T_REC_XST	2
T_REC_TTP	7
T_REC_THO	0
T_REC_SLD	14
T_REC_ALL	232
T_NUM_TAP	195
T_NUM_BRK	6
T_NUM_HLD	17
T_NUM_SLD	14
T_NUM_ALL	232
T_JUDGE_TAP	201
T_JUDGE_HLD	47
T_JUDGE_SLD	14
T_JUDGE_ALL	262
TTM_EACHPAIRS	49
TTM_SCR_TAP	97500
TTM_SCR_BRK	15600
TTM_SCR_HLD	17000
TTM_SCR_SLD	21000
TTM_SCR_ALL	151100
TTM_SCR_S	146000
TTM_SCR_SS	150500
TTM_RAT_ACV	10039

