VERSION	0.00.00	1.03.00
FES_MODE	0
BPM_DEF	190.000	190.000	190.000	190.000
MET_DEF	4	4
RESOLUTION	384
CLK_DEF	384
COMPATIBLE_CODE	MA2

BPM	0	0	190.000
BPM	9	0	190.000
BPM	18	0	190.000
BPM	26	0	190.000
BPM	34	0	190.000
BPM	42	0	190.000
BPM	52	0	190.000
BPM	60	0	190.000
BPM	70	0	190.000
BPM	78	0	190.000
BPM	87	0	190.000
BPM	89	0	190.000
BPM	95	0	190.000
BPM	103	0	190.000
MET	0	0	4	4

HLD	9	0	3	48
TAP	9	48	4
TAP	9	72	3
TAP	9	96	4
TAP	9	144	2
TAP	9	144	5
BRK	9	192	1
BRK	9	192	6
STR	10	0	6
SI_	10	0	6	96	48	4
TAP	10	48	6
STR	10	96	2
SI_	10	96	2	96	48	0
TAP	10	144	2
STR	10	192	6
SI_	10	192	6	96	48	4
TAP	10	240	6
TAP	10	288	1
TAP	10	336	1
HLD	11	0	6	72
TAP	11	72	7
TAP	11	96	6
TAP	11	144	0
TAP	11	144	5
TAP	11	192	0
STR	11	192	5
SI_	11	192	5	96	48	3
TAP	11	288	2
STR	12	0	1
SI_	12	0	1	96	48	3
TAP	12	48	1
STR	12	96	5
SI_	12	96	5	96	48	7
TAP	12	144	5
STR	12	192	1
SI_	12	192	1	96	48	3
TAP	12	240	1
TAP	12	288	6
TAP	12	336	6
HLD	13	0	1	48
TAP	13	48	0
TAP	13	72	1
TAP	13	96	0
TAP	13	144	2
TAP	13	144	7
TAP	13	192	2
STR	13	192	7
SI_	13	192	7	96	48	3
BRK	13	288	0
STR	14	0	1
SI_	14	0	1	96	48	3
TAP	14	48	1
STR	14	96	5
SI_	14	96	5	96	48	7
TAP	14	144	5
STR	14	192	1
SI_	14	192	1	96	48	3
TAP	14	240	1
TAP	14	288	6
TAP	14	336	6
HLD	15	0	1	72
TAP	15	72	0
TAP	15	96	1
TAP	15	144	2
TAP	15	144	7
TAP	15	192	2
STR	15	192	7
SI_	15	192	7	96	48	4
TAP	15	288	3
TAP	16	0	2
TAP	16	24	3
TAP	16	48	2
TAP	16	72	5
TAP	16	96	4
TAP	16	120	5
TAP	16	144	2
TAP	16	168	3
TAP	16	192	2
TAP	16	240	6
TAP	16	288	7
TAP	16	336	0
TAP	17	0	1
TAP	17	0	4
TAP	17	48	2
TAP	17	96	3
TAP	17	96	6
TAP	17	144	5
TAP	17	192	0
TAP	17	192	4
TTP	17	288	0	C	0	M1
XST	18	0	6
SCR	18	0	6	96	48	0
TAP	18	96	1
STR	18	192	2
SCR	18	192	2	96	48	4
TAP	18	288	5
STR	19	0	6
SCR	19	0	6	96	48	0
TAP	19	96	1
STR	19	144	1
SI_	19	144	1	96	48	5
STR	19	240	6
SI_	19	240	6	96	48	2
HLD	19	336	1	144
TAP	20	48	3
TAP	20	96	3
TAP	20	192	2
TAP	20	192	4
STR	20	288	3
SXR	20	288	3	96	120	3
TAP	20	336	3
TAP	21	0	5
TAP	21	96	6
HLD	21	144	6	96
TAP	21	240	4
TAP	21	288	3
XHO	21	336	2	96
TAP	22	48	4
TAP	22	96	5
XHO	22	144	6	96
TAP	22	240	4
TAP	22	288	3
XHO	22	336	2	96
TAP	23	48	4
TAP	23	96	5
XHO	23	144	6	96
TAP	23	240	4
STR	23	288	4
SCL	23	288	4	96	96	0
STR	24	0	0
SCL	24	0	0	96	96	4
TAP	24	96	4
TAP	24	192	7
TAP	24	288	3
TAP	24	288	5
TAP	24	336	3
TAP	24	336	5
TAP	25	48	2
TAP	25	48	4
TAP	25	96	2
TAP	25	96	4
TAP	25	192	1
STR	25	192	5
SCL	25	192	5	96	48	2
XST	26	0	0
SI_	26	0	0	96	48	4
XST	26	0	1
SI_	26	0	1	96	48	3
XST	26	192	6
SI_	26	192	6	96	48	4
XST	26	192	7
SI_	26	192	7	96	48	3
XTP	27	0	0
XTP	27	0	1
XTP	27	96	2
XTP	27	96	6
XTP	27	144	2
XTP	27	144	6
XTP	27	240	3
XTP	27	240	5
XST	27	336	4
SI_	27	336	4	96	48	0
XST	27	336	6
SI_	27	336	6	96	48	4
XST	28	192	1
SI_	28	192	1	96	48	3
XST	28	192	3
SI_	28	192	3	96	48	7
XST	29	0	4
SSL	29	0	4	96	144	0
XST	29	0	6
SCL	29	0	6	96	144	1
XHO	29	336	1	96
XHO	29	336	7	96
XTP	30	96	1
XTP	30	96	7
XTP	30	192	0
XTP	30	192	6
XTP	30	240	0
XTP	30	240	6
XTP	30	288	0
XTP	30	288	6
XTP	31	0	1
XTP	31	0	5
XTP	31	48	1
XTP	31	48	5
XTP	31	96	1
XTP	31	96	5
XHO	31	144	1	96
XHO	31	144	5	96
XST	31	288	3
SI_	31	288	3	96	48	0
XST	31	288	4
SI_	31	288	4	96	48	7
XTP	32	0	3
XTP	32	0	4
XTP	32	96	1
XTP	32	96	6
XTP	32	144	1
XTP	32	144	6
XTP	32	240	3
XTP	32	240	4
XTP	32	288	3
XTP	32	288	4
XST	32	336	3
SUL	32	336	3	96	168	0
XST	32	336	4
SUR	32	336	4	96	168	7
TTP	33	288	0	C	0	M1
TAP	34	0	5
TAP	34	48	5
TAP	34	96	4
TAP	34	144	6
TAP	34	192	2
TAP	34	240	2
TAP	34	288	3
TAP	34	336	1
TAP	35	0	5
TAP	35	48	5
TAP	35	96	3
TAP	35	144	3
HLD	35	192	2	48
HLD	35	192	4	48
HLD	35	288	3	48
HLD	35	288	5	48
TAP	36	0	2
TAP	36	48	2
TAP	36	96	3
TAP	36	144	1
TAP	36	192	5
TAP	36	240	5
TAP	36	288	4
TAP	36	336	6
TAP	37	0	2
TAP	37	48	2
TAP	37	96	4
TAP	37	144	4
TAP	37	192	3
XTP	37	240	3
XTP	37	240	4
XTP	37	288	3
XTP	37	288	4
XTP	37	336	3
XTP	37	336	4
TAP	38	0	5
TAP	38	48	5
TAP	38	96	4
TAP	38	144	7
TAP	38	192	2
TAP	38	240	2
TAP	38	288	3
TAP	38	336	0
XTP	39	0	0
XTP	39	0	7
XTP	39	48	0
XTP	39	48	7
XTP	39	96	0
XTP	39	96	7
XTP	39	144	0
XTP	39	144	7
XTP	39	192	0
XTP	39	192	7
TAP	39	288	2
TAP	39	288	5
BRK	40	0	1
BRK	40	48	0
BRK	40	96	7
BRK	40	144	6
BRK	40	192	5
BRK	40	240	4
BRK	40	288	3
BRK	40	336	2
TTP	41	0	5	B	0	M1
TTP	41	0	5	E	0	M1
TTP	41	96	0	E	0	M1
TTP	41	96	7	B	0	M1
TTP	41	192	3	B	0	M1
TTP	41	192	4	E	0	M1
TTP	41	288	1	B	0	M1
TTP	41	288	1	E	0	M1
XHO	42	0	5	384
TTP	42	96	6	E	0	M1
TTP	42	192	4	E	0	M1
TTP	42	288	0	E	0	M1
HLD	43	0	2	384
TTP	43	96	2	E	0	M1
TTP	43	192	4	E	0	M1
TTP	43	288	0	E	0	M1
XHO	44	0	6	96
HLD	44	96	4	96
HLD	44	192	3	96
TAP	44	288	1
XTP	45	0	0
XTP	45	12	1
XTP	45	24	2
XTP	45	36	3
XTP	45	48	4
XTP	45	60	5
XTP	45	72	6
XTP	45	84	7
XTP	45	96	0
XTP	45	108	1
XTP	45	120	2
XTP	45	132	3
XTP	45	144	4
XTP	45	156	5
XTP	45	168	6
XTP	45	180	7
XTP	45	192	0
BRK	46	0	7
HLD	47	288	5	64
TAP	47	352	4
TAP	48	0	6
HLD	48	96	2	64
TAP	48	160	3
TAP	48	192	1
HLD	48	288	5	64
TAP	48	352	4
TAP	49	0	6
HLD	49	96	2	64
TAP	49	160	3
TAP	49	192	1
TAP	49	256	0
TAP	49	256	7
TAP	49	320	4
TAP	49	320	6
TTP	50	0	0	C	1	M1
TTP	50	0	2	B	0	M1
TTP	50	0	5	B	0	M1
TAP	51	0	2
TAP	51	0	5
TAP	51	48	4
TAP	51	72	3
TAP	51	96	4
TAP	51	144	2
TAP	51	192	2
BRK	51	240	7
BRK	51	288	7
BRK	51	336	7
STR	52	0	1
SI_	52	0	1	96	48	5
TAP	52	48	1
STR	52	96	3
SCR	52	96	3	96	96	1
TAP	52	144	3
TAP	52	192	7
XTP	52	288	2
XHO	52	336	2	96
STR	53	48	3
SI_	53	48	3	96	48	7
TAP	53	96	3
TAP	53	144	1
STR	53	192	1
SSL	53	192	1	96	72	5
XTP	53	288	6
XHO	53	336	6	96
TTP	54	48	3	B	0	M1
TTP	54	48	4	B	0	M1
TTP	54	96	6	B	0	M1
TTP	54	96	7	E	0	M1
TTP	54	144	0	B	0	M1
TTP	54	144	1	E	0	M1
TTP	54	192	5	B	0	M1
TTP	54	192	5	E	0	M1
TTP	54	240	3	B	0	M1
TTP	54	240	3	E	0	M1
TTP	54	288	0	C	0	M1
XST	54	336	0
SI_	54	336	0	96	48	4
TAP	55	48	6
STR	55	96	6
SI_	55	96	6	96	48	2
BRK	55	192	2
BRK	55	192	6
XTP	55	288	1
XTP	55	288	3
XTP	55	336	1
XTP	55	336	3
STR	56	48	0
SI_	56	48	0	96	48	4
STR	56	96	5
SCR	56	96	5	96	96	3
TAP	56	144	0
TAP	56	192	5
XTP	56	288	4
XHO	56	336	4	96
TAP	57	48	5
TAP	57	96	5
TAP	57	144	2
XTP	57	192	2
XTP	57	192	5
XTP	57	240	2
XTP	57	240	5
XST	57	288	3
SUR	57	288	3	96	48	7
XST	57	288	4
SCR	57	288	4	96	48	6
XST	58	0	3
SCL	58	0	3	96	48	1
XST	58	0	4
SUL	58	0	4	96	48	0
XTP	58	96	3
XTP	58	96	4
HLD	58	192	6	48
TAP	58	240	7
TAP	58	264	6
TAP	58	288	7
TAP	58	336	0
TAP	58	336	5
BRK	59	0	0
BST	59	0	5
SCR	59	0	5	96	96	2
XTP	59	240	0
XTP	59	288	0
XTP	59	336	0
STR	60	0	6
SI_	60	0	6	96	48	2
TAP	60	48	6
STR	60	96	4
SCL	60	96	4	96	96	6
TAP	60	144	4
TAP	60	192	0
XTP	60	288	5
XHO	60	336	5	96
STR	61	48	4
SXR	61	48	4	96	96	3
TAP	61	96	4
TAP	61	144	7
TAP	61	192	7
TAP	61	288	5
XTP	61	336	3
TTP	61	344	3	E	0	M1
TTP	61	352	2	B	0	M1
TTP	61	360	1	B	0	M1
TTP	61	368	1	E	0	M1
XTP	62	96	4
TTP	62	104	5	E	0	M1
TTP	62	112	5	B	0	M1
TTP	62	120	6	B	0	M1
TTP	62	128	7	E	0	M1
XTP	62	192	0
XTP	62	240	0
XTP	62	288	0
XTP	62	336	1
XST	62	336	7
SI_	62	336	7	96	48	3
TAP	63	48	3
STR	63	96	2
SCR	63	96	2	96	48	5
BRK	63	192	2
BRK	63	192	5
XTP	63	288	1
XTP	63	288	6
XTP	63	336	1
XTP	63	336	6
STR	64	48	7
SI_	64	48	7	96	48	3
STR	64	96	2
SCL	64	96	2	96	96	4
TAP	64	144	7
TAP	64	192	2
XTP	64	288	3
XHO	64	336	3	96
TAP	65	48	2
TAP	65	96	2
TAP	65	144	5
XTP	65	192	1
XHO	65	192	6	0
XTP	65	240	1
XHO	65	240	6	0
XST	65	288	0
SI_	65	288	0	96	48	4
XHO	65	288	7	0
XST	66	0	0
SF_	66	0	0	96	48	4
XTP	66	96	0
XHO	66	192	6	48
TAP	66	240	4
TAP	66	264	6
TAP	66	288	4
TAP	66	336	3
TAP	66	336	7
BRK	67	0	3
BST	67	0	7
SCL	67	0	7	96	96	2
XTP	67	288	1
TAP	67	336	2
TAP	68	0	3
TAP	68	48	4
TAP	68	96	5
TAP	68	144	6
TAP	68	192	0
TAP	68	192	7
STR	68	288	3
SCL	68	288	3	96	48	0
SCL	68	288	3	96	48	0
TAP	68	288	4
BRK	68	383	4
BRK	69	0	3
TTP	69	8	5	E	0	M1
TTP	69	16	6	E	0	M1
TTP	69	24	7	E	0	M1
XTP	69	96	0
XTP	69	128	0
XTP	69	160	7
XTP	69	192	1
XTP	69	192	6
STR	69	288	0
SI_	69	288	0	96	48	3
STR	69	288	7
SI_	69	288	7	96	48	4
BRK	70	0	0
BRK	70	0	7
TAP	70	192	6
TTP	70	240	4	E	0	M1
TTP	70	264	3	E	0	M1
TTP	70	288	2	E	0	M1
TAP	70	336	7
HLD	71	0	7	96
HLD	71	96	5	96
HLD	71	192	3	96
TAP	71	288	1
TAP	71	336	1
TAP	72	0	7
TTP	72	48	1	E	0	M1
TTP	72	72	2	E	0	M1
TTP	72	96	3	E	0	M1
TAP	72	144	6
HLD	72	192	6	96
HLD	72	288	4	96
STR	73	0	3
SLR	73	0	3	96	96	7
TAP	73	144	0
TAP	73	192	0
XTP	73	288	2
XTP	73	288	6
HLD	74	0	1	96
HLD	74	96	3	72
TAP	74	168	4
HLD	74	192	4	96
TAP	74	288	7
TAP	75	0	3
TAP	75	0	6
TAP	75	48	5
TAP	75	96	1
TAP	75	96	4
TAP	75	144	2
TAP	75	192	3
STR	75	192	4
SI_	75	192	4	96	48	7
TAP	75	288	0
TAP	76	0	1
HLD	76	48	1	48
TAP	76	96	3
HLD	76	144	3	48
TAP	76	192	4
HLD	76	240	4	48
TAP	76	288	6
TAP	76	336	6
BRK	77	0	0
TTP	77	48	7	B	0	M1
TTP	77	48	7	E	0	M1
TTP	77	96	1	B	0	M1
TTP	77	96	2	B	0	M1
TTP	77	144	5	B	0	M1
TTP	77	144	5	E	0	M1
TTP	77	192	0	C	0	M1
XTP	77	288	0
XTP	77	288	7
HLD	78	0	2	96
HLD	78	0	4	96
HLD	78	144	3	96
HLD	78	144	5	96
HLD	78	288	2	96
HLD	78	288	4	96
HLD	79	48	3	96
HLD	79	48	5	96
TTP	79	192	2	E	0	M1
TTP	79	288	6	E	0	M1
HLD	80	0	1	96
HLD	80	0	4	96
HLD	80	144	3	96
HLD	80	144	6	96
HLD	80	288	1	96
HLD	80	288	4	96
HLD	81	48	3	96
HLD	81	48	6	96
TTP	81	192	5	B	0	M1
TTP	81	288	2	B	0	M1
XST	82	0	4
SCR	82	0	4	96	72	7
TTP	82	288	1	E	0	M1
TTP	82	300	1	B	0	M1
TTP	82	312	2	B	0	M1
TTP	82	324	3	B	0	M1
TTP	82	336	4	E	0	M1
XTP	83	0	7
XTP	83	96	0
XTP	83	96	6
TAP	83	192	1
TAP	83	192	5
TAP	83	240	1
TAP	83	240	5
TAP	83	288	1
TAP	83	288	5
TAP	83	336	1
TAP	83	336	5
TAP	84	0	2
STR	84	0	6
SI_	84	0	6	96	48	2
TAP	84	96	3
STR	84	144	3
SI_	84	144	3	96	48	0
TAP	84	240	7
BRK	84	336	1
BRK	84	336	6
TAP	85	48	5
TAP	85	72	4
TAP	85	96	6
TAP	85	144	2
TAP	85	168	3
TAP	85	192	1
TAP	85	240	5
HLD	85	288	5	48
XTP	85	336	3
XTP	85	348	2
XTP	85	360	1
XTP	85	372	0
XTP	86	0	7
XTP	86	12	6
XTP	86	24	5
XTP	86	36	4
XTP	86	48	3
XTP	86	60	2
XTP	86	72	1
XTP	86	84	0
XTP	86	96	7
XTP	86	108	6
XTP	86	120	5
XTP	86	132	4
XTP	86	144	3
XTP	86	156	2
XTP	86	168	1
XTP	86	180	0
BRK	86	192	7
TAP	87	0	1
TAP	87	0	3
TAP	87	48	1
TAP	87	48	3
TAP	87	192	4
TAP	87	192	6
TAP	87	240	4
TAP	87	240	6
XTP	88	0	1
XTP	88	0	6
XTP	88	96	3
XTP	88	96	4
XHO	88	192	0	96
XHO	88	192	7	96
TTP	89	0	4	B	0	M1
TTP	89	0	5	E	0	M1
TTP	89	0	6	B	0	M1
TTP	89	0	7	E	0	M1
TTP	89	96	1	B	0	M1
TTP	89	96	1	E	0	M1
TTP	89	96	3	B	0	M1
TTP	89	96	3	E	0	M1
TTP	89	192	0	C	0	M1
XTP	89	288	0
XTP	89	288	7
XTP	89	336	0
XST	89	336	7
SI_	89	336	7	96	48	3
TAP	90	48	1
STR	90	96	1
SI_	90	96	1	96	48	5
BRK	90	192	1
BRK	90	192	5
XTP	90	288	4
XTP	90	288	6
XTP	90	336	4
XTP	90	336	6
STR	91	48	0
SI_	91	48	0	96	48	4
STR	91	96	5
SCR	91	96	5	96	96	3
TAP	91	144	0
TAP	91	192	5
XTP	91	288	4
XHO	91	336	4	96
TAP	92	48	5
TAP	92	96	5
TAP	92	144	2
TAP	92	192	1
TAP	92	192	6
XTP	92	240	1
XTP	92	240	6
XTP	92	264	2
XTP	92	264	5
XHO	92	288	3	192
XHO	92	288	4	96
STR	93	192	5
SCL	93	192	5	96	48	2
HLD	94	0	0	48
TAP	94	48	7
TAP	94	72	0
TAP	94	96	7
TAP	94	144	1
TAP	94	192	1
XTP	94	240	6
XTP	94	288	6
XTP	94	336	6
STR	95	0	1
SI_	95	0	1	96	48	4
STR	95	0	5
SI_	95	0	5	96	48	0
BRK	95	96	1
BRK	95	96	5
TAP	95	192	3
TAP	95	192	7
TAP	95	288	2
TAP	95	288	6
TAP	95	336	2
HLD	95	336	6	96
STR	96	48	4
SI_	96	48	4	96	48	0
STR	96	96	7
SI_	96	96	7	96	48	3
TAP	96	144	4
TAP	96	192	7
TAP	96	288	1
HLD	96	336	1	96
TTP	97	48	3	B	0	M1
TTP	97	48	4	B	0	M1
TTP	97	96	1	B	0	M1
TTP	97	96	1	E	0	M1
TTP	97	144	7	B	0	M1
TTP	97	144	7	E	0	M1
TTP	97	192	2	B	0	M1
TTP	97	192	3	E	0	M1
TTP	97	240	4	B	0	M1
TTP	97	240	5	E	0	M1
TTP	97	288	0	C	0	M1
XST	97	336	7
SI_	97	336	7	96	48	3
TAP	98	48	1
STR	98	96	1
SI_	98	96	1	96	48	5
BRK	98	192	1
BRK	98	192	5
XTP	98	288	4
XTP	98	288	6
XTP	98	336	4
XTP	98	336	6
STR	99	48	0
SI_	99	48	0	96	48	4
STR	99	96	5
SCR	99	96	5	96	96	3
TAP	99	144	0
TAP	99	192	5
XTP	99	288	4
XHO	99	336	4	96
TAP	100	48	5
TAP	100	96	5
TAP	100	144	2
XTP	100	192	1
XTP	100	192	6
XTP	100	240	1
XTP	100	240	6
XTP	100	288	0
XST	100	288	7
SCL	100	288	7	96	48	4
SCR	100	288	7	96	48	2
XST	101	0	7
SF_	101	0	7	96	48	3
XTP	101	96	7
XHO	101	192	1	48
TAP	101	240	3
TAP	101	264	1
TAP	101	288	3
TAP	101	336	2
TAP	101	336	4
BRK	102	0	1
BRK	102	0	5
XST	102	96	3
SI_	102	96	3	96	48	0
XST	102	96	4
SI_	102	96	4	96	48	7
XTP	102	192	3
XTP	102	192	4
XTP	102	288	1
XTP	102	288	6
TAP	103	0	3
TAP	103	0	6
TAP	103	48	3
TAP	103	48	6
TAP	103	96	3
TAP	103	96	6
TTP	103	192	6	E	0	M1
TTP	103	256	2	E	0	M1
TTP	103	320	4	E	0	M1
XTP	104	0	1
XTP	104	0	4
XTP	104	48	1
XTP	104	48	4
TAP	104	96	1
TAP	104	96	4
XTP	104	192	2
TTP	104	192	7	B	0	M1
TTP	104	192	7	E	0	M1
TTP	104	264	0	B	0	M1
TTP	104	264	1	E	0	M1
XTP	104	264	5
TAP	105	0	2
TAP	105	0	5
TAP	105	48	2
TAP	105	48	5
TAP	105	96	2
TAP	105	96	5
TTP	105	192	0	C	1	M1
TTP	105	192	3	B	0	M1
TTP	105	192	4	B	0	M1
TTP	105	192	4	E	0	M1
TTP	105	360	0	C	1	M1
TTP	105	360	5	B	0	M1
TTP	105	360	6	B	0	M1
TTP	105	360	6	E	0	M1
TTP	106	96	0	B	0	M1
TTP	106	96	0	C	1	M1
TTP	106	96	0	E	0	M1
TTP	106	96	7	B	0	M1
TTP	106	216	0	C	1	M1
TTP	106	216	1	B	0	M1
TTP	106	216	2	B	0	M1
TTP	106	216	2	E	0	M1
XTP	107	0	0
XTP	107	0	6
TAP	107	48	0
TAP	107	48	6
TAP	107	96	0
TAP	107	96	6
TTP	107	192	6	E	0	M1
TTP	107	256	2	E	0	M1
TTP	107	320	4	E	0	M1
XTP	108	0	1
XTP	108	0	4
XTP	108	48	1
XTP	108	48	4
TAP	108	96	1
TAP	108	96	4
TTP	108	192	0	C	1	M1
TTP	108	192	2	B	0	M1
TTP	108	192	3	B	0	M1
TTP	108	192	3	E	0	M1
TTP	108	195	4	B	0	M1
TTP	108	198	5	E	0	M1
TTP	108	201	5	B	0	M1
XTP	109	0	0
XTP	109	0	7
XTP	109	48	0
XTP	109	48	7
STR	109	96	0
SUL	109	96	0	96	72	3
STR	109	96	7
SCL	109	96	7	96	72	4
BRK	110	0	1
BRK	110	0	6
TAP	110	96	7
TAP	110	128	7
TAP	110	160	0
BRK	110	192	1
BRK	110	192	6

T_REC_TAP	289
T_REC_BRK	41
T_REC_XTP	179
T_REC_HLD	49
T_REC_XHO	26
T_REC_STR	53
T_REC_BST	2
T_REC_XST	30
T_REC_TTP	116
T_REC_THO	0
T_REC_SLD	87
T_REC_ALL	872
T_NUM_TAP	667
T_NUM_BRK	43
T_NUM_HLD	75
T_NUM_SLD	87
T_NUM_ALL	872
T_JUDGE_TAP	710
T_JUDGE_HLD	148
T_JUDGE_SLD	87
T_JUDGE_ALL	945
TTM_EACHPAIRS	152
TTM_SCR_TAP	333500
TTM_SCR_BRK	111800
TTM_SCR_HLD	75000
TTM_SCR_SLD	130500
TTM_SCR_ALL	650800
TTM_SCR_S	627150
TTM_SCR_SS	646500
TTM_RAT_ACV	10066

