VERSION	0.00.00	1.03.00
FES_MODE	0
BPM_DEF	190.000	190.000	190.000	190.000
MET_DEF	4	4
RESOLUTION	384
CLK_DEF	384
COMPATIBLE_CODE	MA2

BPM	0	0	190.000
MET	0	0	4	4

TAP	9	0	3
TAP	9	0	4
TAP	9	48	3
TAP	9	48	4
TAP	9	96	3
TAP	9	96	4
TAP	9	192	1
TAP	9	192	6
HLD	10	0	4	96
TAP	10	0	5
TAP	10	96	7
TAP	10	192	2
HLD	10	192	3	96
TAP	10	288	0
HLD	11	0	4	96
TAP	11	0	5
TAP	11	96	7
TAP	11	192	0
TAP	11	192	6
TAP	11	288	1
TAP	11	288	5
TAP	12	0	2
TAP	12	0	3
TAP	12	96	0
TAP	12	96	1
TAP	12	192	6
TAP	12	192	7
TAP	12	288	4
TAP	12	288	5
TAP	13	0	2
TAP	13	0	3
TAP	13	96	0
TAP	13	96	1
TAP	13	192	6
TAP	13	192	7
TAP	13	288	0
TAP	13	288	5
TAP	14	0	2
HLD	14	0	3	96
TAP	14	96	0
HLD	14	192	4	96
TAP	14	192	5
TAP	14	288	7
TAP	15	0	2
HLD	15	0	3	96
TAP	15	96	0
TAP	15	192	1
TAP	15	192	7
TAP	15	288	2
TAP	15	288	6
HLD	16	0	5	96
HLD	16	96	7	96
HLD	16	192	0	96
HLD	16	288	2	96
TAP	17	0	5
TAP	17	96	3
TAP	17	96	4
BRK	17	192	1
BRK	17	192	6
TAP	18	0	4
STR	18	96	4
SXL	18	96	4	96	192	3
TAP	19	0	2
TAP	19	96	2
TAP	19	192	1
TAP	19	192	4
TAP	19	288	2
TAP	19	288	4
TAP	20	0	3
TAP	20	0	4
STR	20	96	3
SXR	20	96	3	96	192	3
TAP	20	96	4
TAP	21	0	5
TAP	21	96	5
TAP	21	192	3
TAP	21	192	6
TAP	21	288	2
TAP	21	288	5
STR	22	0	1
SI_	22	0	1	96	96	6
TAP	22	0	4
TAP	22	192	4
TAP	22	288	4
STR	23	0	5
SI_	23	0	5	96	96	2
TAP	23	192	0
TAP	23	288	0
HLD	24	0	1	96
TAP	24	96	3
HLD	24	192	5	96
TAP	24	288	4
HLD	25	0	2	96
TAP	25	96	3
TAP	25	192	1
TAP	25	192	4
TAP	26	0	3
STR	26	96	3
SXR	26	96	3	96	192	4
TAP	27	0	5
TAP	27	96	5
TAP	27	192	3
TAP	27	192	6
TAP	27	288	3
TAP	27	288	5
TAP	28	0	3
TAP	28	0	4
TAP	28	96	3
STR	28	96	4
SXL	28	96	4	96	192	4
TAP	29	0	2
TAP	29	96	2
TAP	29	192	1
TAP	29	192	4
TAP	29	288	2
TAP	29	288	5
TAP	30	0	3
STR	30	0	6
SI_	30	0	6	96	96	1
TAP	30	192	3
TAP	30	288	3
STR	31	0	2
SI_	31	0	2	96	96	5
TAP	31	192	7
TAP	31	288	7
HLD	32	0	6	96
TAP	32	96	4
HLD	32	192	2	96
TAP	32	288	3
STR	33	0	4
SI_	33	0	4	96	96	7
XTP	33	288	1
XTP	33	288	6
TAP	34	0	5
TAP	34	48	5
TAP	34	96	4
TAP	34	192	2
TAP	34	240	2
TAP	34	288	3
TAP	35	0	4
TAP	35	48	4
TAP	35	96	3
TAP	35	192	2
TAP	35	192	4
TAP	35	288	2
TAP	35	288	4
TAP	36	0	1
TAP	36	48	1
TAP	36	96	0
TAP	36	192	6
TAP	36	240	6
TAP	36	288	7
TAP	37	0	0
TAP	37	48	0
TAP	37	96	7
TAP	37	192	0
TAP	37	192	6
TAP	37	288	0
TAP	37	288	6
TAP	38	0	1
TAP	38	48	1
TAP	38	96	3
TAP	38	192	6
TAP	38	240	6
TAP	38	288	4
TAP	39	0	0
TAP	39	48	0
TAP	39	96	7
TAP	39	192	1
TAP	39	192	6
TAP	39	288	0
TAP	39	288	7
TAP	40	0	0
TAP	40	0	1
TAP	40	48	0
TAP	40	48	1
BRK	40	96	0
BRK	40	96	1
TAP	40	192	6
TAP	40	192	7
TAP	40	240	6
TAP	40	240	7
BRK	40	288	6
BRK	40	288	7
TAP	41	0	3
TAP	41	0	4
TAP	41	96	2
TAP	41	96	5
TAP	41	192	1
TAP	41	192	6
TTP	42	0	2	B	0	M1
TTP	42	96	3	E	0	M1
TTP	42	192	2	E	0	M1
TTP	42	192	3	B	0	M1
TTP	43	0	5	B	0	M1
TTP	43	96	5	E	0	M1
TTP	43	192	4	B	0	M1
TTP	43	192	6	E	0	M1
TTP	44	0	3	B	0	M1
TTP	44	96	2	B	0	M1
TTP	44	192	4	B	0	M1
TTP	44	288	5	B	0	M1
TTP	45	0	4	E	0	M1
TTP	45	96	3	E	0	M1
TTP	45	96	5	E	0	M1
THO	45	192	0	192	C	0	M1
HLD	47	288	7	96
HLD	48	0	6	96
HLD	48	96	5	96
HLD	48	192	4	96
HLD	48	288	3	96
HLD	49	0	2	96
HLD	49	96	1	96
HLD	49	192	0	96
TAP	49	288	7
TTP	50	0	0	C	1	M1
TTP	50	0	2	B	0	M1
TTP	50	0	5	B	0	M1
TAP	51	0	7
TAP	51	48	7
TAP	51	96	0
TAP	51	144	0
TAP	51	192	1
TAP	51	192	6
TAP	52	0	0
TAP	52	0	6
TAP	52	96	1
TAP	52	96	7
TAP	52	192	0
TAP	52	192	5
TAP	52	288	2
TAP	52	288	7
TAP	53	0	0
TAP	53	0	5
TAP	53	96	4
TAP	53	96	6
TAP	53	192	0
TAP	53	192	1
TAP	53	240	0
TAP	53	240	1
TAP	53	288	2
TAP	53	288	7
TAP	54	0	0
TAP	54	0	6
TAP	54	96	1
TAP	54	96	7
TAP	54	192	6
TAP	54	192	7
TAP	54	240	6
TAP	54	240	7
STR	54	288	6
SI_	54	288	6	96	96	3
STR	54	288	7
SI_	54	288	7	96	96	2
TAP	55	192	0
TAP	55	192	5
TAP	56	0	1
TAP	56	0	7
TAP	56	96	0
TAP	56	96	6
TAP	56	192	2
TAP	56	192	7
TAP	56	288	0
TAP	56	288	5
TAP	57	0	2
TAP	57	0	7
TAP	57	96	1
TAP	57	96	3
TAP	57	192	6
TAP	57	192	7
TAP	57	240	6
TAP	57	240	7
TAP	57	288	0
TAP	57	288	5
BRK	58	0	0
BRK	58	0	1
BRK	58	96	6
BRK	58	96	7
TAP	58	192	4
TAP	58	192	5
STR	58	288	2
SCL	58	288	2	96	96	7
STR	58	288	3
SCR	58	288	3	96	96	6
XTP	59	192	0
XTP	59	288	0
TAP	60	0	1
TAP	60	0	7
TAP	60	96	0
TAP	60	96	6
TAP	60	192	2
TAP	60	192	7
TAP	60	288	0
TAP	60	288	5
TAP	61	0	2
TAP	61	0	7
TAP	61	96	1
TAP	61	96	3
TAP	61	192	6
TAP	61	192	7
TAP	61	240	6
TAP	61	240	7
TAP	61	288	0
TAP	61	288	5
TAP	62	0	1
TAP	62	0	7
TAP	62	96	0
TAP	62	96	6
TAP	62	192	0
TAP	62	192	1
TAP	62	240	0
TAP	62	240	1
STR	62	288	0
SI_	62	288	0	96	96	5
STR	62	288	1
SI_	62	288	1	96	96	4
TAP	63	192	2
TAP	63	192	7
TAP	64	0	0
TAP	64	0	6
TAP	64	96	1
TAP	64	96	7
TAP	64	192	0
TAP	64	192	5
TAP	64	288	2
TAP	64	288	7
TAP	65	0	0
TAP	65	0	5
TAP	65	96	4
TAP	65	96	6
TAP	65	192	0
TAP	65	192	1
TAP	65	240	0
TAP	65	240	1
TAP	65	288	2
TAP	65	288	7
BRK	66	0	6
BRK	66	0	7
BRK	66	96	0
BRK	66	96	1
TAP	66	192	2
TAP	66	192	3
STR	66	288	4
SCL	66	288	4	96	192	6
TAP	66	288	5
TAP	68	0	2
TAP	68	0	4
TAP	68	96	3
TAP	68	96	5
HLD	68	192	2	96
HLD	68	192	6	96
STR	69	0	1
SI_	69	0	1	96	48	4
STR	69	0	5
SI_	69	0	5	96	48	0
BRK	69	192	2
BRK	69	192	6
HLD	70	0	1	96
HLD	70	96	3	96
HLD	70	192	4	96
HLD	70	288	6	96
HLD	71	0	7	96
TAP	71	96	0
TAP	71	192	1
TAP	71	192	7
HLD	72	0	6	96
HLD	72	96	4	96
HLD	72	192	3	96
HLD	72	288	1	96
HLD	73	0	0	96
TAP	73	96	7
TAP	73	192	0
TAP	73	192	6
HLD	74	0	7	96
TAP	74	96	5
TAP	74	192	4
TAP	74	192	6
HLD	75	0	0	96
TAP	75	96	2
TAP	75	192	1
TAP	75	192	3
HLD	76	0	5	96
HLD	76	96	7	96
HLD	76	192	0	96
HLD	76	288	2	96
TAP	77	0	4
TAP	77	96	3
TAP	77	96	5
BRK	77	192	2
BRK	77	192	6
TTP	78	0	0	E	0	M1
TTP	78	96	1	E	0	M1
TTP	78	192	2	E	0	M1
TTP	78	288	3	E	0	M1
TTP	79	0	4	E	0	M1
TTP	79	96	5	E	0	M1
TTP	79	192	0	C	0	M1
TTP	79	192	6	E	0	M1
TTP	80	0	0	E	0	M1
TTP	80	96	7	E	0	M1
TTP	80	192	6	E	0	M1
TTP	80	288	5	E	0	M1
TTP	81	0	4	E	0	M1
TTP	81	96	3	E	0	M1
TTP	81	192	0	C	0	M1
TTP	81	192	2	E	0	M1
XHO	82	0	0	288
TAP	82	288	7
TAP	83	0	1
TAP	83	0	6
TAP	83	96	2
TAP	83	96	5
TAP	83	192	3
TAP	83	192	4
STR	84	0	7
SI_	84	0	7	96	192	4
XTP	84	192	3
XTP	84	288	3
XST	85	0	3
SI_	85	0	3	96	192	0
XTP	85	192	7
XTP	85	288	7
XTP	86	0	7
TAP	86	96	0
TAP	86	96	7
TAP	86	192	1
TAP	86	192	6
TAP	87	0	2
TAP	87	0	4
TAP	87	48	2
TAP	87	48	4
TAP	87	192	3
TAP	87	192	5
TAP	87	240	3
TAP	87	240	5
TAP	88	0	0
TAP	88	0	7
TAP	88	96	3
TAP	88	96	4
BRK	88	192	1
BRK	88	192	6
TAP	89	0	1
TAP	89	0	7
TAP	89	96	0
TAP	89	96	6
TAP	89	192	1
TAP	89	192	7
TAP	89	240	1
TAP	89	240	7
STR	89	288	1
SCR	89	288	1	96	96	4
STR	89	288	7
SCL	89	288	7	96	96	4
TAP	90	192	2
TAP	90	192	6
TAP	91	0	1
TAP	91	0	7
TAP	91	96	0
TAP	91	96	6
TAP	91	192	2
TAP	91	192	7
TAP	91	288	0
TAP	91	288	5
TAP	92	0	2
TAP	92	0	7
TAP	92	96	1
TAP	92	96	3
TAP	92	192	6
TAP	92	192	7
TAP	92	240	6
TAP	92	240	7
TAP	92	288	0
TAP	92	288	5
TTP	93	0	0	C	1	M1
HLD	94	0	2	192
TAP	94	0	5
XTP	94	192	0
XTP	94	288	0
TAP	95	0	3
HLD	95	0	4	96
BRK	95	96	0
TAP	95	192	1
TAP	95	192	7
TAP	95	288	0
TAP	95	288	6
TAP	96	0	2
TAP	96	0	7
TAP	96	96	1
TAP	96	96	3
TAP	96	192	6
TAP	96	192	7
TAP	96	240	6
TAP	96	240	7
TAP	96	288	0
TAP	96	288	5
TAP	97	0	1
TAP	97	0	7
TAP	97	96	0
TAP	97	96	6
TAP	97	192	1
TAP	97	192	7
TAP	97	240	1
TAP	97	240	7
STR	97	288	1
SCR	97	288	1	96	96	4
STR	97	288	7
SCL	97	288	7	96	96	4
TAP	98	192	2
TAP	98	192	6
TAP	99	0	0
TAP	99	0	6
TAP	99	96	1
TAP	99	96	7
TAP	99	192	0
TAP	99	192	5
TAP	99	288	2
TAP	99	288	7
TAP	100	0	0
TAP	100	0	5
TAP	100	96	4
TAP	100	96	6
TAP	100	192	0
TAP	100	192	1
TAP	100	240	0
TAP	100	240	1
TAP	100	288	2
TAP	100	288	7
BRK	101	0	6
BRK	101	0	7
BRK	101	96	0
BRK	101	96	1
TAP	101	192	2
TAP	101	192	3
STR	101	288	4
SCL	101	288	4	96	96	1
STR	101	288	5
SCR	101	288	5	96	96	0
XTP	102	192	7
XTP	102	288	7
TAP	103	0	0
TAP	103	0	6
TAP	103	48	0
TAP	103	48	6
STR	103	96	0
SI_	103	96	0	96	48	3
STR	103	96	6
SI_	103	96	6	96	48	3
TAP	104	0	1
TAP	104	0	7
TAP	104	48	1
TAP	104	48	7
STR	104	96	1
SI_	104	96	1	96	48	4
STR	104	96	7
SI_	104	96	7	96	48	4
TAP	105	0	2
TAP	105	0	5
TAP	105	48	2
TAP	105	48	5
STR	105	96	2
SI_	105	96	2	96	48	0
STR	105	96	5
SI_	105	96	5	96	48	7
TAP	106	0	0
TAP	106	0	7
TAP	106	96	1
TAP	106	96	6
BRK	106	192	2
BRK	106	192	5
TAP	107	0	1
TAP	107	0	7
TAP	107	48	1
TAP	107	48	7
STR	107	96	1
SI_	107	96	1	96	48	4
STR	107	96	7
SI_	107	96	7	96	48	4
TAP	108	0	0
TAP	108	0	6
TAP	108	48	0
TAP	108	48	6
STR	108	96	0
SI_	108	96	0	96	48	3
STR	108	96	6
SI_	108	96	6	96	48	3
TAP	109	0	2
TAP	109	0	5
TAP	109	48	2
TAP	109	48	5
STR	109	96	2
SI_	109	96	2	96	48	0
STR	109	96	5
SI_	109	96	5	96	48	7
STR	110	0	1
SI_	110	0	1	96	48	4
STR	110	0	5
SI_	110	0	5	96	48	0
BRK	110	192	2
BRK	110	192	6

T_REC_TAP	397
T_REC_BRK	29
T_REC_XTP	13
T_REC_HLD	43
T_REC_XHO	1
T_REC_STR	39
T_REC_BST	0
T_REC_XST	1
T_REC_TTP	35
T_REC_THO	1
T_REC_SLD	40
T_REC_ALL	599
T_NUM_TAP	485
T_NUM_BRK	29
T_NUM_HLD	45
T_NUM_SLD	40
T_NUM_ALL	599
T_JUDGE_TAP	514
T_JUDGE_HLD	98
T_JUDGE_SLD	40
T_JUDGE_ALL	652
TTM_EACHPAIRS	201
TTM_SCR_TAP	242500
TTM_SCR_BRK	75400
TTM_SCR_HLD	45000
TTM_SCR_SLD	60000
TTM_SCR_ALL	422900
TTM_SCR_S	407400
TTM_SCR_SS	420000
TTM_RAT_ACV	10069

