VERSION	0.00.00	1.03.00
FES_MODE	0
BPM_DEF	190.000	190.000	190.000	190.000
MET_DEF	4	4
RESOLUTION	384
CLK_DEF	384
COMPATIBLE_CODE	MA2

BPM	0	0	190.000
MET	0	0	4	4

TAP	9	0	3
TAP	9	0	4
TAP	9	96	3
TAP	9	96	4
BRK	9	192	2
BRK	9	192	5
TAP	10	0	6
TAP	10	96	6
TAP	10	192	7
TAP	10	288	7
TAP	11	0	0
TAP	11	96	0
TAP	11	192	1
TAP	11	192	7
TAP	12	0	2
TAP	12	96	2
TAP	12	192	3
TAP	12	288	3
TAP	13	0	4
TAP	13	96	4
TAP	13	192	3
TAP	13	192	5
TAP	14	0	5
TAP	14	96	5
TAP	14	192	4
TAP	14	288	4
TAP	15	0	3
TAP	15	96	3
TAP	15	192	2
TAP	15	192	4
TAP	16	0	1
TAP	16	96	1
TAP	16	192	0
TAP	16	288	0
XTP	17	0	0
XTP	17	0	7
XTP	17	96	0
XTP	17	96	7
BRK	17	192	1
BRK	17	192	6
HLD	18	0	5	192
TAP	18	192	4
HLD	19	0	2	192
TAP	19	192	3
HLD	20	0	5	192
TAP	20	192	4
HLD	21	0	2	96
HLD	21	0	3	96
TAP	21	192	2
TAP	21	192	3
XST	22	0	1
SI_	22	0	1	96	144	4
STR	23	0	5
SI_	23	0	5	96	144	0
TAP	24	0	1
TAP	24	96	1
TAP	24	192	0
TAP	25	0	7
TAP	25	96	7
TAP	25	192	0
TAP	25	192	6
HLD	26	0	1	192
TAP	26	192	0
HLD	27	0	6	192
TAP	27	192	7
HLD	28	0	1	192
TAP	28	192	0
HLD	29	0	6	96
HLD	29	0	7	96
TAP	29	192	6
TAP	29	192	7
XST	30	0	5
SI_	30	0	5	96	144	0
STR	31	0	1
SI_	31	0	1	96	144	4
TAP	32	0	5
TAP	32	96	5
TAP	32	192	4
TAP	33	0	3
TAP	33	0	4
TAP	33	96	3
TAP	33	96	4
XTP	33	192	2
XTP	33	192	5
TAP	34	0	1
TAP	34	96	1
TAP	34	192	0
TAP	34	192	1
TAP	35	0	6
TAP	35	96	6
TAP	35	192	6
TAP	35	192	7
TAP	36	0	1
TAP	36	96	1
TAP	36	192	0
TAP	36	288	0
TAP	37	0	7
TAP	37	96	7
TAP	37	192	0
TAP	37	192	6
TAP	38	0	5
TAP	38	96	5
TAP	38	192	4
TAP	38	192	5
TAP	39	0	2
TAP	39	96	2
TAP	39	192	2
TAP	39	192	3
TAP	40	0	5
TAP	40	96	5
TAP	40	192	4
TAP	40	288	4
XTP	41	0	3
XTP	41	0	4
XTP	41	96	2
XTP	41	96	5
XTP	41	192	1
XTP	41	192	6
TTP	42	0	2	E	0	L1
TTP	42	192	3	E	0	L1
TTP	43	0	4	E	0	L1
TTP	44	0	6	E	0	L1
TTP	44	192	5	E	0	L1
TTP	45	0	4	E	0	L1
TTP	46	0	0	C	0	L1
TTP	47	0	2	E	0	L1
TTP	47	0	6	E	0	L1
TTP	48	0	3	E	0	L1
TTP	48	0	5	E	0	L1
TTP	48	192	2	B	0	L1
TTP	48	192	5	B	0	L1
TTP	49	0	1	B	0	L1
TTP	49	0	6	B	0	L1
TTP	49	192	1	E	0	L1
TTP	49	192	7	E	0	L1
TTP	50	0	0	C	1	L1
XTP	51	0	0
XTP	51	0	7
XTP	51	96	0
XTP	51	96	7
XTP	51	192	0
XTP	51	192	7
BRK	52	0	6
TAP	52	96	6
TAP	52	192	6
TAP	52	192	7
TAP	52	288	6
TAP	52	288	7
TAP	53	0	1
TAP	53	96	1
TAP	53	192	0
TAP	53	192	1
TAP	53	288	0
TAP	53	288	1
TAP	54	0	2
TAP	54	96	2
TAP	54	192	3
TAP	54	288	3
TAP	55	0	4
TAP	55	96	3
TAP	55	96	4
BRK	55	192	2
BRK	55	192	5
HLD	56	0	6	96
TAP	56	96	7
TAP	56	192	6
TAP	56	192	7
HLD	57	0	1	96
TAP	57	96	0
TAP	57	192	0
TAP	57	192	1
TAP	58	0	7
TAP	58	96	7
TAP	58	192	0
TAP	58	288	0
BST	59	0	0
SI_	59	0	0	96	144	3
BST	59	0	7
SI_	59	0	7	96	144	4
BRK	60	0	2
TAP	60	96	2
TAP	60	192	2
TAP	60	192	3
TAP	60	288	2
TAP	60	288	3
TAP	61	0	5
TAP	61	96	5
TAP	61	192	4
TAP	61	192	5
TAP	61	288	4
TAP	61	288	5
TAP	62	0	6
TAP	62	96	6
TAP	62	192	7
TAP	62	288	7
TAP	63	0	0
TAP	63	96	0
TAP	63	96	7
BRK	63	192	1
BRK	63	192	6
HLD	64	0	2	96
TAP	64	96	3
TAP	64	192	2
TAP	64	192	3
HLD	65	0	5	96
TAP	65	96	4
TAP	65	192	4
TAP	65	192	5
TAP	66	0	3
TAP	66	96	3
TAP	66	192	4
TAP	66	288	4
BST	67	0	3
SI_	67	0	3	96	144	0
BST	67	0	4
SI_	67	0	4	96	144	7
HLD	68	0	7	192
TAP	68	192	0
TAP	69	0	0
TAP	69	0	7
TAP	69	96	0
TAP	69	96	7
BRK	69	192	1
BRK	69	192	6
STR	70	0	2
SI_	70	0	2	96	144	7
TAP	71	0	6
TAP	71	96	6
TAP	71	192	6
TAP	71	192	7
STR	72	0	5
SI_	72	0	5	96	144	0
TAP	73	0	1
TAP	73	96	1
TAP	73	192	0
TAP	73	192	1
STR	74	0	2
SI_	74	0	2	96	144	5
STR	75	0	6
SI_	75	0	6	96	144	2
TAP	76	0	1
TAP	76	96	1
TAP	76	192	0
TAP	76	288	0
BST	77	0	0
SCR	77	0	0	96	144	3
BST	77	0	7
SCL	77	0	7	96	144	4
HLD	78	0	2	192
HLD	78	192	3	192
HLD	79	0	4	192
TAP	79	192	5
HLD	80	0	5	192
HLD	80	192	4	192
HLD	81	0	3	192
TAP	81	192	2
STR	82	0	1
SCR	82	0	1	96	144	4
TAP	83	0	5
TAP	83	96	5
TAP	83	192	4
TAP	83	192	5
TAP	84	0	6
TAP	84	96	6
TAP	84	192	7
TAP	84	288	7
TAP	85	0	0
TAP	85	96	0
TAP	85	192	1
TAP	85	288	1
TAP	86	0	2
TAP	86	96	2
BRK	86	192	3
BRK	86	192	4
XTP	87	0	4
XTP	87	0	5
XTP	87	192	2
XTP	87	192	3
TAP	88	0	3
TAP	88	0	4
TAP	88	96	3
TAP	88	96	4
TAP	88	192	2
TAP	88	192	5
TAP	89	0	6
TAP	89	96	6
TAP	89	96	7
TAP	89	192	1
TAP	89	288	0
TAP	89	288	1
TAP	90	0	7
TAP	90	96	0
TAP	90	96	7
BRK	90	192	1
BRK	90	192	6
HLD	91	0	5	96
TAP	91	96	4
TAP	91	192	4
TAP	91	192	5
HLD	92	0	2	96
TAP	92	96	3
TAP	92	192	2
TAP	92	192	3
TAP	93	0	4
TAP	93	96	4
TAP	93	192	3
TAP	93	288	3
BST	94	0	3
SCL	94	0	3	96	144	0
BST	94	0	4
SCR	94	0	4	96	144	7
TAP	95	0	0
TAP	95	0	7
BRK	95	96	0
BRK	95	96	7
TAP	95	192	0
TAP	95	192	7
TAP	96	0	1
TAP	96	0	6
TAP	96	96	1
TAP	96	96	6
TAP	96	192	1
TAP	96	192	6
TAP	97	0	2
TAP	97	96	2
TAP	97	96	3
TAP	97	192	5
TAP	97	288	4
TAP	97	288	5
TAP	98	0	3
TAP	98	96	3
TAP	98	96	4
BRK	98	192	2
BRK	98	192	5
HLD	99	0	6	96
TAP	99	96	7
TAP	99	192	6
TAP	99	192	7
HLD	100	0	1	96
TAP	100	96	0
TAP	100	192	0
TAP	100	192	1
TAP	101	0	7
TAP	101	96	7
TAP	101	192	0
TAP	101	288	0
BST	102	0	0
SI_	102	0	0	96	144	3
BRK	102	0	7
TAP	103	0	4
TAP	103	0	5
TAP	103	96	4
TAP	103	96	5
BRK	103	192	4
BRK	103	192	5
TAP	104	0	2
TAP	104	0	3
TAP	104	96	2
TAP	104	96	3
BRK	104	192	2
BRK	104	192	3
TAP	105	0	0
TAP	105	0	1
TAP	105	96	0
TAP	105	96	1
BRK	105	192	0
BRK	105	192	1
TAP	106	0	6
TAP	106	96	6
TAP	106	192	6
TAP	106	192	7
TAP	107	0	4
TAP	107	0	5
TAP	107	96	4
TAP	107	96	5
BRK	107	192	4
BRK	107	192	5
TAP	108	0	2
TAP	108	0	3
TAP	108	96	2
TAP	108	96	3
BRK	108	192	2
BRK	108	192	3
TAP	109	0	0
TAP	109	0	1
TAP	109	96	0
TAP	109	96	1
BRK	109	192	0
BRK	109	192	1
TAP	110	0	0
TAP	110	0	7
TAP	110	96	1
TAP	110	96	6
BRK	110	192	2
BRK	110	192	5

T_REC_TAP	259
T_REC_BRK	35
T_REC_XTP	22
T_REC_HLD	25
T_REC_XHO	0
T_REC_STR	7
T_REC_BST	9
T_REC_XST	2
T_REC_TTP	18
T_REC_THO	0
T_REC_SLD	18
T_REC_ALL	395
T_NUM_TAP	308
T_NUM_BRK	44
T_NUM_HLD	25
T_NUM_SLD	18
T_NUM_ALL	395
T_JUDGE_TAP	352
T_JUDGE_HLD	76
T_JUDGE_SLD	18
T_JUDGE_ALL	446
TTM_EACHPAIRS	101
TTM_SCR_TAP	154000
TTM_SCR_BRK	114400
TTM_SCR_HLD	25000
TTM_SCR_SLD	27000
TTM_SCR_ALL	320400
TTM_SCR_S	306550
TTM_SCR_SS	316000
TTM_RAT_ACV	10139

