VERSION	0.00.00	1.03.00
FES_MODE	0
BPM_DEF	190.000	190.000	190.000	190.000
MET_DEF	4	4
RESOLUTION	384
CLK_DEF	384
COMPATIBLE_CODE	MA2

BPM	0	0	190.000
MET	0	0	4	4

TAP	10	0	0
TAP	12	0	0
TAP	14	0	7
TAP	16	0	7
TAP	18	0	0
TAP	19	0	0
TAP	20	0	1
TAP	21	0	1
TAP	22	0	2
TAP	23	0	2
TAP	24	0	3
XTP	25	0	3
XTP	25	0	4
TAP	26	0	4
TAP	27	0	4
TAP	28	0	5
TAP	29	0	5
TAP	30	0	6
TAP	31	0	6
TAP	32	0	7
XTP	33	0	0
XTP	33	0	7
STR	34	0	7
SI_	34	0	7	96	288	4
STR	36	0	0
SI_	36	0	0	96	288	3
STR	38	0	7
SI_	38	0	7	96	288	4
TAP	40	0	3
BRK	41	0	3
BRK	41	0	4
TTP	42	0	3	B	0	L1
TTP	43	0	2	B	0	L1
TTP	44	0	1	B	0	L1
TTP	45	0	0	B	0	L1
TTP	46	0	7	B	0	L1
TTP	47	0	6	B	0	L1
TTP	48	0	5	B	0	L1
TTP	49	0	4	B	0	L1
THO	50	0	0	384	C	0	L1
TAP	52	0	7
TAP	52	192	7
TAP	53	0	7
TAP	54	0	6
TAP	54	192	6
TAP	55	0	6
TAP	56	0	5
TAP	56	192	5
TAP	57	0	5
TAP	58	0	4
TAP	58	192	4
TAP	59	0	3
TAP	59	0	4
TAP	60	0	3
TAP	60	192	3
TAP	61	0	3
TAP	62	0	2
TAP	62	192	2
TAP	63	0	2
TAP	64	0	1
TAP	64	192	1
TAP	65	0	1
TAP	66	0	0
TAP	66	192	0
XTP	67	0	0
XTP	67	0	7
TAP	68	0	7
TAP	68	192	7
BRK	69	0	0
BRK	69	0	7
STR	70	0	0
SI_	70	0	0	96	288	4
STR	72	0	7
SI_	72	0	7	96	288	3
STR	74	0	0
SI_	74	0	0	96	288	4
TAP	76	0	7
XTP	77	0	7
HLD	78	0	6	288
HLD	78	0	7	288
HLD	80	0	4	288
HLD	80	0	5	288
HLD	82	0	2	384
HLD	82	0	3	384
HLD	84	0	0	384
HLD	84	0	1	384
XTP	86	0	0
XTP	86	0	1
TAP	87	0	0
TAP	87	192	0
TAP	88	0	1
TAP	88	192	1
TAP	89	0	2
TAP	89	192	2
TAP	90	0	3
TAP	90	0	4
TAP	91	0	4
TAP	91	192	4
TAP	92	0	5
TAP	92	192	5
TAP	93	0	6
TAP	93	192	6
XTP	94	0	0
XTP	94	0	7
TAP	95	0	7
TAP	95	192	7
TAP	96	0	6
TAP	96	192	6
TAP	97	0	5
TAP	97	192	5
XTP	98	0	3
XTP	98	0	4
XTP	98	192	3
XTP	98	192	4
TAP	99	0	3
TAP	99	192	3
TAP	100	0	2
TAP	100	192	2
TAP	101	0	1
TAP	101	192	1
XTP	102	0	0
XTP	102	0	7
XTP	103	0	0
XTP	103	0	7
XTP	103	192	0
XTP	103	192	7
XTP	104	0	0
XTP	104	0	7
XTP	105	0	1
XTP	105	0	6
XTP	105	192	1
XTP	105	192	6
XTP	106	0	1
XTP	106	0	6
XTP	107	0	2
XTP	107	0	5
XTP	107	192	2
XTP	107	192	5
XTP	108	0	2
XTP	108	0	5
XTP	109	0	3
XTP	109	0	4
XTP	109	192	3
XTP	109	192	4
XTP	110	0	2
XTP	110	0	5
XTP	110	192	2
XTP	110	192	5

T_REC_TAP	72
T_REC_BRK	4
T_REC_XTP	43
T_REC_HLD	8
T_REC_XHO	0
T_REC_STR	6
T_REC_BST	0
T_REC_XST	0
T_REC_TTP	8
T_REC_THO	1
T_REC_SLD	6
T_REC_ALL	148
T_NUM_TAP	129
T_NUM_BRK	4
T_NUM_HLD	9
T_NUM_SLD	6
T_NUM_ALL	148
T_JUDGE_TAP	133
T_JUDGE_HLD	64
T_JUDGE_SLD	6
T_JUDGE_ALL	203
TTM_EACHPAIRS	29
TTM_SCR_TAP	64500
TTM_SCR_BRK	10400
TTM_SCR_HLD	9000
TTM_SCR_SLD	9000
TTM_SCR_ALL	92900
TTM_SCR_S	89750
TTM_SCR_SS	92500
TTM_RAT_ACV	10043

