VERSION	0.00.00	1.04.00
FES_MODE	0
BPM_DEF	190.000	190.000	190.000	190.000
MET_DEF	4	4
RESOLUTION	384
CLK_DEF	384
COMPATIBLE_CODE	MA2

BPM	0	0	190.000
MET	0	0	4	4

NMTAP	1	0	2
NMTAP	1	96	2
NMTAP	1	168	4
NMTAP	1	192	3
EXTAP	1	240	2
EXTAP	1	240	5
EXTAP	1	264	1
EXTAP	1	264	6
BXTAP	1	288	0
BXTAP	1	288	7
NMTAP	2	0	2
NMTAP	2	48	2
NMTAP	2	72	3
NMTAP	2	96	1
NMTAP	2	144	4
NMTAP	2	192	5
NMTAP	2	240	5
NMTAP	2	264	4
NMSTR	2	288	6
NMSI_	2	288	6	96	48	0
NMTAP	2	336	3
NMSTR	3	0	6
NMSI_	3	0	6	96	48	4
NMTAP	3	48	2
NMTAP	3	96	6
NMTAP	3	144	2
NMTAP	3	192	6
NMTAP	3	240	7
BRTAP	3	288	0
BRTAP	3	288	1
NMTAP	3	336	2
BRTAP	4	0	3
BRTAP	4	0	4
NMTAP	4	48	5
NMTAP	4	96	5
NMSTR	4	144	4
NMSI_	4	144	4	96	48	6
NMTAP	4	192	3
NMTAP	4	240	1
NMSTR	4	240	4
NMSI_	4	240	4	96	48	2
NMTAP	4	336	4
NMHLD	4	336	7	96
NMTAP	5	48	1
NMTAP	5	72	1
NMSTR	5	96	0
NMSCL	5	96	0	96	96	4
NMTAP	5	144	1
NMTAP	5	192	0
BRTAP	5	288	2
NMTAP	6	0	5
NMTAP	6	48	5
NMTAP	6	72	4
NMTAP	6	96	6
NMTAP	6	144	3
NMTAP	6	192	2
NMTAP	6	240	2
NMTAP	6	264	3
NMSTR	6	288	1
NMSI_	6	288	1	96	48	7
NMTAP	6	336	4
NMSTR	7	0	1
NMSI_	7	0	1	96	48	3
NMTAP	7	48	5
NMTAP	7	96	1
NMTAP	7	144	5
NMTAP	7	192	1
NMTAP	7	240	0
BRTAP	7	288	5
BRTAP	7	288	7
NMTAP	7	336	4
BRHLD	8	0	1	96
BRHLD	8	0	3	96
NMTAP	8	144	4
NMTAP	8	144	6
BRHLD	8	192	4	96
BRHLD	8	192	6	96
NMTAP	8	336	0
NMTAP	8	336	7
NMTAP	9	48	1
NMTAP	9	48	6
NMTAP	9	72	2
NMTAP	9	72	5
NMTAP	9	96	3
NMTAP	9	96	4
NMTAP	9	144	2
NMTAP	9	144	5
NMTAP	9	192	2
NMTAP	9	192	5
NMTTP	9	288	0	E	0	M1
NMTTP	9	288	0	A	0	M1
NMTTP	9	288	0	D	0	M1
NMTTP	9	288	7	A	0	M1
NMSTR	10	0	4
NMSI_	10	0	4	96	48	6
NMTAP	10	96	3
NMSTR	10	192	2
NMSI_	10	192	2	96	48	0
NMTAP	10	288	3
NMTAP	10	336	3
NMSTR	11	0	4
NMSCR	11	0	4	96	48	7
NMSTR	11	96	2
NMSCL	11	96	2	96	48	7
NMSTR	11	192	3
NMSI_	11	192	3	96	48	7
NMSTR	12	0	3
NMSI_	12	0	3	96	48	1
NMTAP	12	96	4
NMSTR	12	192	5
NMSI_	12	192	5	96	48	7
NMTAP	12	288	4
NMTAP	12	336	4
NMSTR	13	0	3
NMSCL	13	0	3	96	48	0
NMSTR	13	96	5
NMSCR	13	96	5	96	48	0
NMSTR	13	192	4
NMSI_	13	192	4	96	48	0
NMSTR	14	0	6
NMSCR	14	0	6	96	96	1
NMSTR	14	96	1
NMSCR	14	96	1	96	96	4
NMSTR	14	192	4
NMSCR	14	192	4	96	96	7
NMTAP	14	288	0
NMHLD	14	336	0	96
NMTAP	15	48	1
NMHLD	15	96	1	96
NMSTR	15	192	2
NMSCR	15	192	2	96	96	5
NMSTR	15	288	5
NMSUR	15	288	5	96	96	2
NMSTR	16	0	2
NMSUR	16	0	2	96	96	6
NMSTR	16	96	6
NMSCR	16	96	6	96	96	1
NMTAP	16	192	1
NMTAP	16	288	6
NMTAP	16	336	6
BRTAP	17	48	0
BRTAP	17	48	7
BXTAP	17	144	1
BXTAP	17	144	6
BXTAP	17	168	1
BXTAP	17	168	6
BXTAP	17	192	1
BXTAP	17	192	6
BRTAP	17	240	5
BRTAP	17	288	3
BRTAP	17	288	4
BRTAP	17	336	2
BRTAP	18	0	1
BRSTR	18	0	4
NMSCR	18	0	4	96	48	6
NMSTR	18	96	2
NMSCR	18	96	2	96	48	4
NMTAP	18	192	7
NMTAP	18	288	6
NMHLD	18	336	6	240
NMTAP	19	48	5
NMSTR	19	96	5
NMSUR	19	96	5	96	96	3
BRTAP	19	288	7
BRTAP	20	0	2
BRTAP	20	0	6
NMSTR	20	96	7
NMSCL	20	96	7	96	96	4
NMSTR	20	192	4
NMSV_	20	192	4	96	96	2
NMTAP	20	288	1
NMTAP	20	336	1
NMTAP	21	48	0
NMHLD	21	96	0	192
NMSTR	21	192	2
NMSI_	21	192	2	96	48	6
BRTAP	22	0	1
BRTAP	22	0	5
NMSTR	22	96	0
NMSCR	22	96	0	96	48	2
NMSTR	22	192	6
NMSCR	22	192	6	96	48	0
NMTAP	22	288	3
NMTAP	22	336	2
BRTAP	23	0	1
BRTAP	23	0	7
NMTAP	23	48	0
NMTAP	23	96	0
NMTAP	23	192	1
NMTAP	23	192	4
NMTAP	23	264	3
NMTAP	23	264	6
NMTAP	23	336	4
NMTAP	23	336	5
BRSTR	24	0	4
NMSI_	24	0	4	96	48	0
BRTAP	24	0	5
BRTAP	24	192	2
BRSTR	24	192	3
NMSI_	24	192	3	96	48	7
BRTAP	25	0	0
NMTAP	25	0	2
NMTAP	25	48	2
BRTAP	25	96	1
NMTAP	25	96	7
NMTAP	25	144	7
NMTAP	25	192	0
BRTAP	25	192	6
NMTAP	25	240	0
NMTAP	25	288	5
BRTAP	25	288	7
NMTAP	25	336	5
BRTAP	26	0	0
BRTAP	26	0	4
NMTAP	26	48	1
NMTAP	26	72	3
NMHLD	26	96	2	48
NMTAP	26	144	4
NMTAP	26	168	3
NMHLD	26	192	5	48
NMTAP	26	240	7
NMTAP	26	264	6
NMHLD	26	288	0	48
NMTAP	26	336	3
NMTAP	26	360	1
NMHLD	27	0	4	48
NMTAP	27	48	7
NMTAP	27	72	5
NMHLD	27	96	0	48
NMTAP	27	144	3
NMTAP	27	168	1
NMHLD	27	192	4	48
NMTAP	27	240	7
NMTAP	27	264	5
BRTAP	27	288	0
BRTAP	27	288	4
EXHLD	28	0	5	48
BRTAP	28	48	0
NMTAP	28	64	1
NMTAP	28	80	2
NMTAP	28	96	3
EXHLD	28	96	5	48
BRTAP	28	144	0
NMTAP	28	160	1
NMTAP	28	176	2
NMTAP	28	192	3
EXHLD	28	192	6	48
BRTAP	28	240	0
NMTAP	28	256	1
NMTAP	28	272	2
NMTAP	28	288	3
EXHLD	28	288	6	48
BRTAP	28	336	0
NMTAP	28	352	1
NMTAP	28	368	2
NMTAP	29	0	3
EXSTR	29	0	7
NMSI_	29	0	7	96	32	5
EXSTR	29	48	7
NMSI_	29	48	7	96	32	1
EXSTR	29	96	7
NMSSR	29	96	7	96	96	3
NMTTP	30	0	0	A	0	M1
NMTTP	30	0	6	A	0	M1
NMTAP	30	96	2
NMTAP	30	96	5
NMTAP	30	144	3
NMTAP	30	168	4
NMHLD	30	192	2	48
NMTAP	30	240	0
NMTAP	30	264	1
NMHLD	30	288	7	48
NMTAP	30	336	4
NMTAP	30	360	6
NMHLD	31	0	3	48
NMTAP	31	48	0
NMTAP	31	72	2
NMHLD	31	96	7	48
NMTAP	31	144	4
NMTAP	31	168	6
NMHLD	31	192	3	48
NMTAP	31	240	0
NMTAP	31	264	2
BRTAP	31	288	3
BRTAP	31	288	7
NMTTP	32	0	2	A	0	M1
NMTTP	32	0	6	A	0	M1
NMTTP	32	11	6	D	0	M1
NMTTP	32	12	2	D	0	M1
NMTTP	32	23	5	A	0	M1
NMTTP	32	24	1	A	0	M1
NMTTP	32	35	5	D	0	M1
NMTTP	32	36	1	D	0	M1
NMTTP	32	96	3	A	0	M1
NMTTP	32	96	7	A	0	M1
NMTTP	32	107	7	E	0	M1
NMTTP	32	108	3	E	0	M1
NMTTP	32	119	6	B	0	M1
NMTTP	32	120	2	B	0	M1
NMTTP	32	131	5	B	0	M1
NMTTP	32	132	1	B	0	M1
NMTTP	32	192	1	A	0	M1
NMTTP	32	192	5	A	0	M1
NMTTP	32	203	5	D	0	M1
NMTTP	32	204	1	D	0	M1
NMTTP	32	215	4	A	0	M1
NMTTP	32	216	0	A	0	M1
NMTTP	32	227	4	D	0	M1
NMTTP	32	228	0	D	0	M1
NMTTP	32	288	2	A	0	M1
NMTTP	32	288	6	A	0	M1
NMTTP	32	299	6	E	0	M1
NMTTP	32	300	2	E	0	M1
NMTTP	32	311	5	B	0	M1
NMTTP	32	312	1	B	0	M1
NMTTP	32	323	4	B	0	M1
NMTTP	32	324	0	B	0	M1
EXHLD	33	0	1	96
EXHLD	33	0	5	96
NMTTP	33	192	0	B	0	M1
NMTTP	33	192	0	C	1	M1
NMTTP	33	192	0	E	0	M1
NMTTP	33	192	0	A	0	M1
NMTTP	33	192	1	E	0	M1
NMTTP	33	192	1	A	0	M1
NMTTP	33	192	2	E	0	M1
NMTTP	33	192	2	A	0	M1
NMTTP	33	192	3	B	0	M1
NMTTP	33	192	3	E	0	M1
NMTTP	33	192	3	A	0	M1
NMTTP	33	192	4	B	0	M1
NMTTP	33	192	4	E	0	M1
NMTTP	33	192	4	A	0	M1
NMTTP	33	192	5	E	0	M1
NMTTP	33	192	5	A	0	M1
NMTTP	33	192	6	E	0	M1
NMTTP	33	192	6	A	0	M1
NMTTP	33	192	7	B	0	M1
NMTTP	33	192	7	E	0	M1
NMTTP	33	192	7	A	0	M1
BXTAP	34	0	1
BXSTR	34	0	6
NMSI_	34	0	6	96	48	0
NMTAP	34	48	6
NMSTR	34	96	2
NMSI_	34	96	2	96	48	4
NMTAP	34	144	2
NMSTR	34	192	6
NMSI_	34	192	6	96	48	2
NMTAP	34	240	6
NMSTR	34	288	1
NMSI_	34	288	1	96	48	7
NMTAP	34	336	1
NMSTR	35	0	5
NMSI_	35	0	5	96	48	3
NMTAP	35	48	5
NMSTR	35	96	1
NMSI_	35	96	1	96	48	5
NMTAP	35	144	1
NMTAP	35	192	6
NMTAP	35	240	6
BRTAP	35	288	0
BRTAP	35	288	7
EXTAP	36	0	3
EXTAP	36	0	4
NMTTP	36	48	3	A	0	M1
NMTTP	36	48	4	A	0	M1
NMTTP	36	56	3	D	0	M1
NMTTP	36	56	5	D	0	M1
NMTTP	36	64	2	A	0	M1
NMTTP	36	64	5	A	0	M1
NMTTP	36	72	2	D	0	M1
NMTTP	36	72	6	D	0	M1
EXTAP	36	96	3
EXTAP	36	96	4
NMTTP	36	144	3	A	0	M1
NMTTP	36	144	4	A	0	M1
NMTTP	36	152	3	D	0	M1
NMTTP	36	152	5	D	0	M1
NMTTP	36	160	2	A	0	M1
NMTTP	36	160	5	A	0	M1
NMTTP	36	168	2	D	0	M1
NMTTP	36	168	6	D	0	M1
EXTAP	36	192	3
EXTAP	36	192	4
NMTTP	36	240	3	A	0	M1
NMTTP	36	240	4	A	0	M1
NMTTP	36	248	3	D	0	M1
NMTTP	36	248	5	D	0	M1
NMTTP	36	256	2	A	0	M1
NMTTP	36	256	5	A	0	M1
NMTTP	36	264	2	D	0	M1
NMTTP	36	264	6	D	0	M1
EXTAP	36	288	3
EXTAP	36	288	4
NMTTP	36	336	3	A	0	M1
NMTTP	36	336	4	A	0	M1
NMTTP	36	344	3	D	0	M1
NMTTP	36	344	5	D	0	M1
NMTTP	36	352	2	A	0	M1
NMTTP	36	352	5	A	0	M1
NMTTP	36	360	2	D	0	M1
NMTTP	36	360	6	D	0	M1
EXTAP	37	0	3
EXTAP	37	0	4
EXTAP	37	48	3
EXTAP	37	48	4
EXTAP	37	96	2
EXTAP	37	96	5
EXTAP	37	144	1
EXTAP	37	144	6
EXTAP	37	192	0
EXTAP	37	192	7
NMTTP	37	204	1	D	0	M1
NMTTP	37	211	1	A	0	M1
NMTTP	37	218	2	D	0	M1
NMTTP	37	225	2	A	0	M1
NMTTP	37	232	3	D	0	M1
NMTTP	37	239	3	A	0	M1
NMTTP	37	246	4	D	0	M1
NMTTP	37	253	4	A	0	M1
NMTTP	37	260	5	D	0	M1
NMTTP	37	267	5	A	0	M1
NMTTP	37	274	6	D	0	M1
NMTTP	37	281	6	A	0	M1
NMTTP	37	288	7	D	0	M1
BRSTR	38	0	1
NMSI_	38	0	1	96	48	7
BRTAP	38	0	6
NMTAP	38	48	1
NMSTR	38	96	5
NMSI_	38	96	5	96	48	3
NMTAP	38	144	5
NMSTR	38	192	1
NMSI_	38	192	1	96	48	5
NMTAP	38	240	1
NMSTR	38	288	6
NMSI_	38	288	6	96	48	0
NMTAP	38	336	6
BRSTR	39	0	2
NMSI_	39	0	2	96	48	4
NMTAP	39	48	2
NMSTR	39	96	6
NMSI_	39	96	6	96	48	2
NMTAP	39	144	6
NMTAP	39	192	1
NMTAP	39	240	1
NMTAP	39	288	0
NMTAP	39	288	7
BRTAP	40	0	0
BRTAP	40	0	7
NMTAP	40	48	1
NMTAP	40	72	0
NMTAP	40	96	2
BRTAP	40	144	1
BRTAP	40	144	7
NMTAP	40	192	6
NMTAP	40	216	7
NMTAP	40	240	5
BRTAP	40	288	0
BRTAP	40	288	6
BRTAP	41	0	0
BRTAP	41	0	1
NMTAP	41	12	2
NMTAP	41	24	3
NMTAP	41	36	4
NMTAP	41	48	5
NMTAP	41	60	6
NMTAP	41	72	7
NMTAP	41	84	0
NMTAP	41	96	1
NMTAP	41	108	2
NMTAP	41	120	3
NMTAP	41	132	4
NMTAP	41	144	5
NMTAP	41	156	6
NMTAP	41	168	7
NMTAP	41	180	0
NMTAP	41	192	1
NMTAP	41	192	5
NMTAP	42	0	2
NMTAP	42	48	2
NMTAP	42	48	4
NMTAP	42	144	5
NMTAP	42	192	3
NMTAP	42	192	5
NMTAP	42	288	1
NMTAP	42	288	3
NMTAP	42	336	1
NMTAP	42	336	4
NMHLD	43	0	1	176
NMHLD	43	0	5	176
NMTTP	43	184	1	B	0	M1
NMTTP	43	184	5	B	0	M1
NMTTP	43	192	0	C	1	M1
NMTAP	44	0	0
NMTAP	44	0	7
NMTAP	44	48	6
NMSTR	44	96	5
NMSI_	44	96	5	96	48	7
NMSTR	44	144	7
NMSI_	44	144	7	96	48	3
NMTAP	44	192	5
NMTAP	44	288	2
NMTAP	44	336	1
NMTAP	45	0	0
NMTAP	45	0	4
NMTAP	45	48	1
NMTAP	45	72	3
NMSTR	45	96	2
NMSV_	45	96	2	96	48	0
NMTAP	45	144	6
NMTAP	45	192	2
EXTAP	45	240	7
EXTAP	45	256	6
EXTAP	45	272	5
BXTAP	45	288	4
NMTAP	46	0	4
NMTAP	46	0	6
NMTAP	46	48	3
NMTAP	46	48	5
NMTAP	46	96	1
NMTAP	46	144	0
NMTAP	46	144	2
NMTAP	46	192	1
NMTAP	46	192	7
NMTAP	46	240	6
NMTAP	46	288	4
NMTAP	46	288	5
NMTAP	46	336	3
NMSTR	46	336	6
NMSXL	46	336	6	96	144	1
NMTAP	47	48	5
NMTAP	47	96	4
NMTAP	47	144	3
NMHLD	47	192	2	96
NMTTP	47	240	1	D	0	M1
NMTTP	47	252	0	A	0	M1
NMTTP	47	264	0	D	0	M1
NMTTP	47	276	7	A	0	M1
NMTTP	47	288	7	D	1	M1
NMTAP	48	0	0
NMTAP	48	0	7
NMTAP	48	48	1
NMSTR	48	96	2
NMSI_	48	96	2	96	48	0
NMSTR	48	144	0
NMSI_	48	144	0	96	48	4
NMTAP	48	192	2
NMTAP	48	288	5
NMTAP	48	336	6
NMTAP	49	0	3
NMTAP	49	0	7
NMTAP	49	48	6
NMTAP	49	72	4
NMSTR	49	96	5
NMSV_	49	96	5	96	48	7
NMTAP	49	144	1
NMTAP	49	192	5
EXTAP	49	240	0
EXTAP	49	256	1
EXTAP	49	272	2
BXTAP	49	288	3
NMTAP	50	0	2
NMTAP	50	0	6
NMTAP	50	48	1
NMTAP	50	48	7
EXSTR	50	96	2
NMSI_	50	96	2	96	48	4
EXSTR	50	96	6
NMSI_	50	96	6	96	48	3
NMTAP	50	144	1
NMTAP	50	144	7
NMTAP	50	192	2
NMTAP	50	192	6
NMTAP	50	288	2
NMTAP	50	288	5
BRTAP	50	336	0
BRTAP	50	336	7
BRTAP	51	48	4
BRTAP	51	48	6
BRTAP	51	96	1
BRTAP	51	96	3
BRTAP	51	144	2
BRTAP	51	144	5
BXSTR	51	192	3
NMSI_	51	192	3	96	48	0
BXSTR	51	192	4
NMSI_	51	192	4	96	48	7
EXTAP	52	0	1
EXTAP	52	0	6
NMTAP	52	48	5
NMSTR	52	96	6
NMSI_	52	96	6	96	48	0
NMSTR	52	144	0
NMSI_	52	144	0	96	48	4
NMTAP	52	192	6
NMTAP	52	288	2
NMTAP	52	336	1
NMTAP	53	0	0
NMTAP	53	0	4
NMTAP	53	48	1
NMTAP	53	72	3
NMSTR	53	96	2
NMSV_	53	96	2	96	48	7
NMTAP	53	144	5
NMTAP	53	192	2
EXTAP	53	240	6
EXTAP	53	256	5
EXTAP	53	272	4
BXTAP	53	288	3
NMTAP	54	0	1
NMTAP	54	0	3
NMTAP	54	48	2
NMTAP	54	48	4
NMTAP	54	96	5
NMTAP	54	144	0
NMTAP	54	144	6
NMTAP	54	192	1
NMTAP	54	192	7
NMTAP	54	240	2
NMSTR	54	288	3
BRSXR	54	288	3	96	120	4
NMSTR	54	288	5
BRSXL	54	288	5	96	120	4
NMTAP	55	192	0
NMTAP	55	216	1
NMTAP	55	240	2
NMTAP	55	264	3
NMTAP	55	288	0
NMTAP	55	312	7
NMTAP	55	336	6
NMTAP	55	360	5
NMTAP	56	0	0
NMTAP	56	0	4
NMTAP	56	48	2
NMSTR	56	96	1
NMSI_	56	96	1	96	48	7
NMSTR	56	144	7
NMSI_	56	144	7	96	48	3
NMTAP	56	192	1
NMTAP	56	288	5
NMTAP	56	336	6
NMTAP	57	0	3
NMTAP	57	0	7
NMTAP	57	48	6
NMTAP	57	72	4
NMSTR	57	96	5
NMSV_	57	96	5	96	48	0
NMTAP	57	144	2
NMTAP	57	192	5
EXTAP	57	240	1
EXTAP	57	256	2
EXTAP	57	272	3
BXTAP	57	288	4
EXSTR	58	0	7
NMSV_	58	0	7	96	48	4
EXSTR	58	48	3
NMSV_	58	48	3	96	48	0
EXSTR	58	96	7
NMSI_	58	96	7	96	48	5
EXSTR	58	144	3
NMSI_	58	144	3	96	48	1
EXTAP	58	192	7
EXTAP	58	240	3
EXTAP	58	288	7
BRHLD	59	0	2	144
BRHLD	59	0	5	144
NMTTP	59	192	2	B	1	M1
NMTTP	59	192	2	E	0	M1
NMTTP	59	216	4	B	1	M1
NMTTP	59	216	4	E	0	M1
NMTTP	59	240	0	B	1	M1
NMTTP	59	240	0	E	0	M1
NMTTP	59	264	6	B	1	M1
NMTTP	59	264	6	E	0	M1
NMTTP	59	288	0	C	1	M1
EXSTR	60	0	1
NMSCR	60	0	1	96	288	7
EXSTR	60	0	6
NMSCL	60	0	6	96	288	0
CNSXL	61	0	0	0	288	3
CNSXR	61	0	7	0	288	4
NMHLD	62	0	6	72
NMTAP	62	72	4
NMHLD	62	144	1	72
NMTAP	62	216	3
NMTAP	62	288	4
NMTAP	62	336	3
NMHLD	63	0	2	48
BRTAP	63	48	0
NMHLD	63	96	1	48
BRTAP	63	144	7
NMHLD	63	192	0	48
BRTAP	63	240	6
BRTAP	63	264	7
BRTAP	63	288	6
NMHLD	64	0	0	96
NMHLD	64	0	5	96
NMTAP	64	144	1
NMHLD	64	192	1	72
NMHLD	64	264	3	72
NMTAP	64	336	2
NMHLD	65	0	5	72
NMHLD	65	72	4	72
NMTAP	65	144	6
NMHLD	65	192	2	72
NMHLD	65	264	3	72
NMTAP	65	336	1
NMTAP	66	0	0
NMTHO	66	0	0	384	C	0	M1
NMTAP	66	48	0
NMTAP	66	96	7
NMTAP	66	144	7
NMTAP	66	192	6
NMTAP	66	240	6
NMTAP	66	288	7
NMTAP	66	336	7
BRSTR	67	0	0
NMSI_	67	0	0	96	48	3
BRSTR	67	96	0
NMSI_	67	96	0	96	48	5
BRTAP	67	192	0
BXTAP	67	288	1
BXTAP	67	288	7
NMTAP	68	0	2
NMSTR	68	0	4
NMSCR	68	0	4	96	120	1
NMHLD	68	96	3	144
NMTAP	68	288	0
NMTAP	68	336	7
NMTAP	69	0	6
NMTAP	69	24	4
NMTAP	69	48	5
NMTAP	69	72	3
NMTAP	69	96	4
NMTAP	69	120	2
NMTAP	69	144	3
NMTAP	69	168	1
NMTAP	69	192	4
NMTAP	69	216	2
NMTAP	69	240	5
NMTAP	69	264	3
BRTAP	69	288	6
NMTAP	69	312	4
NMTAP	69	336	7
NMTAP	69	360	5
NMHLD	70	0	0	96
EXTAP	70	96	5
EXTAP	70	112	4
EXTAP	70	128	3
EXTAP	70	144	2
NMTAP	70	240	1
NMTAP	70	288	1
NMTAP	70	336	0
NMHLD	70	336	7	192
NMTAP	71	48	6
NMTAP	71	96	5
NMSTR	71	144	4
NMSI_	71	144	4	96	48	7
NMSTR	71	192	3
NMSI_	71	192	3	96	48	0
BRTAP	71	240	4
BRTAP	71	288	3
NMSTR	72	0	6
NMSCL	72	0	6	96	96	2
NMSTR	72	96	2
NMSCL	72	96	2	96	96	6
NMSTR	72	192	6
NMSCL	72	192	6	96	96	2
NMTAP	72	288	2
EXSTR	73	0	1
BRSI_	73	0	1	96	48	5
EXTAP	73	48	1
EXSTR	73	96	6
BRSI_	73	96	6	96	48	2
EXTAP	73	144	6
EXSTR	73	192	3
BRSI_	73	192	3	96	48	7
EXTAP	73	240	3
EXTAP	73	288	5
EXTAP	73	336	5
BXTAP	74	0	6
NMTAP	74	24	0
NMTAP	74	48	6
NMTAP	74	72	0
NMTAP	74	96	7
NMTAP	74	120	1
NMTAP	74	144	7
NMTAP	74	168	1
NMTAP	74	192	6
NMTAP	74	216	2
NMTAP	74	240	5
NMTAP	74	264	1
NMTAP	74	288	4
NMTAP	74	312	0
NMTAP	74	336	3
NMTAP	74	360	7
NMHLD	75	0	2	368
NMHLD	75	192	6	176
BXTAP	76	0	3
BXTAP	76	0	7
EXTAP	76	16	0
EXTAP	76	16	4
EXTAP	76	32	1
EXTAP	76	32	5
EXTAP	76	48	2
EXTAP	76	48	6
EXTAP	76	64	3
EXTAP	76	64	7
EXTAP	76	80	0
EXTAP	76	80	4
EXSTR	76	96	1
NMSUL	76	96	1	96	48	5
EXSTR	76	96	5
NMSUL	76	96	5	96	48	1
BXSTR	76	192	1
NMSCR	76	192	1	96	48	5
BXSTR	76	192	5
NMSCR	76	192	5	96	48	1
BXTAP	76	288	1
BXTAP	76	288	5
BXTAP	77	0	3
BXTAP	77	0	7
NMTAP	77	48	5
NMTAP	77	72	4
NMSTR	77	96	6
NMSLL	77	96	6	96	96	0
NMTAP	77	144	2
NMSTR	77	192	0
NMSI_	77	192	0	96	48	6
NMTAP	77	288	3
NMTAP	77	336	2
NMTAP	78	0	1
NMTAP	78	0	5
NMTAP	78	48	2
NMTAP	78	72	3
NMSTR	78	96	1
NMSXL	78	96	1	96	96	0
NMTAP	78	144	0
NMTAP	78	192	1
EXTAP	78	240	7
EXTAP	78	256	6
EXTAP	78	272	5
BXTAP	78	288	4
NMTAP	79	0	4
NMTAP	79	0	6
NMTAP	79	48	3
NMTAP	79	48	5
NMTAP	79	96	1
NMTAP	79	144	0
NMTAP	79	144	2
NMTAP	79	192	1
NMTAP	79	192	7
NMTAP	79	240	6
NMTAP	79	288	4
NMTAP	79	288	5
NMTAP	79	336	3
NMSTR	79	336	6
NMSXL	79	336	6	96	144	1
NMTAP	80	48	5
NMTAP	80	96	4
NMTAP	80	144	3
NMHLD	80	192	2	96
NMTTP	80	240	1	D	0	M1
NMTTP	80	252	0	A	0	M1
NMTTP	80	264	0	D	0	M1
NMTTP	80	276	7	A	0	M1
NMTTP	80	288	7	D	1	M1
BXTAP	81	0	0
BXTAP	81	0	4
NMTAP	81	48	2
NMTAP	81	72	3
NMSTR	81	96	1
NMSLR	81	96	1	96	96	7
NMTAP	81	144	5
NMSTR	81	192	7
NMSI_	81	192	7	96	48	1
NMTAP	81	288	4
NMTAP	81	336	5
NMTAP	82	0	2
NMTAP	82	0	6
NMTAP	82	48	5
NMTAP	82	72	4
NMSTR	82	96	6
NMSXR	82	96	6	96	96	7
NMTAP	82	144	7
NMTAP	82	192	6
EXTAP	82	240	0
EXTAP	82	256	1
EXTAP	82	272	2
BXTAP	82	288	3
NMTAP	83	0	1
NMTAP	83	0	5
NMTAP	83	48	0
NMTAP	83	48	6
NMSTR	83	96	2
NMSI_	83	96	2	96	48	7
NMSTR	83	96	4
NMSI_	83	96	4	96	48	7
NMTAP	83	144	1
NMTAP	83	144	5
NMTAP	83	192	2
NMTAP	83	192	4
NMTAP	83	288	0
NMTAP	83	288	6
BRTAP	83	336	2
BRTAP	83	336	4
BRTAP	84	48	1
BRTAP	84	48	3
BRTAP	84	96	4
BRTAP	84	96	6
BRTAP	84	144	1
BRTAP	84	144	5
BXSTR	84	192	3
NMSXR	84	192	3	96	120	4
BXSTR	84	192	7
NMSXR	84	192	7	96	120	0
NMTTP	84	288	3	A	0	M1
NMTTP	84	288	7	A	0	M1
BRTAP	85	96	1
BRTAP	85	96	5
NMTAP	85	192	6
NMTAP	85	192	7
NMTAP	85	240	5
NMTAP	85	288	3
NMTAP	85	288	4
NMTAP	85	336	2
NMTAP	86	0	0
NMTAP	86	0	1
NMTAP	86	48	7
NMTAP	86	72	0
NMSTR	86	96	6
NMSV_	86	96	6	96	48	4
NMTAP	86	144	5
NMTAP	86	144	7
NMTAP	86	192	6
CNSCR	86	240	4	0	48	0
EXTAP	86	240	7
EXTAP	86	252	0
EXTAP	86	264	1
EXTAP	86	276	2
BXTAP	86	288	3
NMTAP	87	0	3
NMTAP	87	0	5
NMTAP	87	48	2
NMTAP	87	48	4
NMTAP	87	96	0
NMTAP	87	144	1
NMTAP	87	144	7
NMTAP	87	192	0
NMTAP	87	192	6
NMTAP	87	240	5
NMSTR	87	288	2
BRSXR	87	288	2	96	120	3
NMSTR	87	288	4
BRSXL	87	288	4	96	120	3
NMTAP	88	192	7
NMTAP	88	216	6
NMTAP	88	240	5
NMTAP	88	264	4
NMTAP	88	288	7
NMTAP	88	312	0
NMTAP	88	336	1
NMTAP	88	360	2
BRTAP	89	0	3
BRTAP	89	0	7
NMTAP	89	48	5
NMTAP	89	72	4
NMSTR	89	96	6
NMSI_	89	96	6	96	48	3
NMSTR	89	144	2
NMSI_	89	144	2	96	48	7
NMTAP	89	192	6
NMTAP	89	240	2
NMTAP	89	288	4
NMTAP	89	336	5
NMTAP	90	0	1
NMTAP	90	0	6
NMTAP	90	48	3
NMTAP	90	72	4
NMSTR	90	96	2
NMSV_	90	96	2	96	48	0
NMTAP	90	144	1
NMTAP	90	144	3
NMTAP	90	192	2
CNSCR	90	240	0	0	48	4
EXTAP	90	240	3
EXTAP	90	252	4
EXTAP	90	264	5
EXTAP	90	276	6
BXTAP	90	288	7
EXSTR	91	0	7
NMSI_	91	0	7	96	24	5
EXSTR	91	48	0
NMSI_	91	48	0	96	24	4
EXSTR	91	96	7
NMSI_	91	96	7	96	24	3
EXSTR	91	144	0
NMSI_	91	144	0	96	24	2
EXSTR	91	192	7
NMSCL	91	192	7	96	96	0
EXTAP	91	240	0
EXTAP	91	288	7
NMTTP	92	0	0	B	0	M1
NMTTP	92	0	0	E	1	M1
NMTTP	92	0	7	B	0	M1
NMSTR	92	192	3
NMSI_	92	192	3	96	48	0
BXTAP	93	0	0
BXHLD	93	0	4	576
NMTAP	93	12	1
NMTAP	93	24	2
NMTAP	93	36	3
NMTAP	93	60	5
NMTAP	93	72	6
NMTAP	93	84	7
NMTAP	93	96	0
NMTAP	93	108	1
NMTAP	93	120	2
NMTAP	93	132	3
NMTAP	93	156	5
NMTAP	93	168	6
NMTAP	93	180	7
NMTAP	93	192	0
NMTAP	93	204	1
NMTAP	93	216	2
NMTAP	93	228	3
NMTAP	93	252	5
NMTAP	93	264	6
NMTAP	93	276	7
NMTAP	93	288	0
NMTAP	93	300	1
NMTAP	93	312	2
NMTAP	93	324	3
NMTAP	93	348	5
NMTAP	93	360	6
NMTAP	93	372	7
NMTAP	94	0	0
NMTAP	94	12	1
NMTAP	94	24	2
NMTAP	94	36	3
NMTAP	94	60	5
NMTAP	94	72	6
NMTAP	94	84	7
NMTAP	94	96	0
NMTAP	94	108	1
NMTAP	94	120	2
NMTAP	94	132	3
NMTAP	94	156	5
NMTAP	94	168	6
NMTAP	94	180	7
NMSTR	94	192	0
NMSI_	94	192	0	96	48	4
EXSTR	94	288	0
NMSI_	94	288	0	96	48	2
NMSI_	94	288	0	96	48	6
EXTAP	95	0	0
NMTAP	95	96	4
NMSTR	95	144	3
NMSCR	95	144	3	96	36	6
NMTAP	95	192	2
NMSTR	95	240	2
NMSCL	95	240	2	96	36	7
NMTAP	95	240	3
NMTAP	95	336	2
NMTAP	95	336	3
NMTAP	96	48	6
NMTAP	96	72	6
NMTAP	96	96	7
NMTAP	96	144	0
NMTAP	96	144	5
NMTAP	96	192	2
NMTAP	96	192	3
BRTAP	96	240	5
BRTAP	96	264	4
BRTAP	96	288	7
NMTAP	97	0	2
NMTAP	97	48	2
NMTAP	97	72	3
NMTAP	97	96	1
NMTAP	97	144	4
NMTAP	97	192	5
NMTAP	97	240	5
NMTAP	97	264	4
NMSTR	97	288	6
NMSI_	97	288	6	96	48	0
NMTAP	97	336	3
NMSTR	98	0	6
NMSI_	98	0	6	96	48	4
NMTAP	98	48	2
NMTAP	98	96	6
NMTAP	98	144	2
NMTAP	98	192	6
NMTAP	98	240	7
BRTAP	98	288	0
BRTAP	98	288	2
NMTAP	98	336	3
BRHLD	99	0	4	96
BRHLD	99	0	6	96
NMTAP	99	144	1
NMTAP	99	144	3
BRHLD	99	192	1	96
BRHLD	99	192	3	96
BRTAP	99	336	0
BRTAP	99	336	7
BXTAP	100	48	1
BXTAP	100	48	6
BXTAP	100	72	1
BXTAP	100	72	6
BXTAP	100	96	1
BXTAP	100	96	6
BRTAP	100	144	4
BRTAP	100	144	5
BRTAP	100	192	2
BRSTR	100	192	3
NMSI_	100	192	3	96	48	0
EXSTR	100	288	3
NMSV_	100	288	3	96	96	4
EXSTR	100	288	4
NMSV_	100	288	4	96	96	3
CNSCL	101	96	3	0	96	1
CNSCR	101	96	4	0	96	6
CNSV_	101	192	1	0	168	0
CNSV_	101	192	6	0	168	7
BRTAP	102	48	1
BRTAP	102	48	6
BRTAP	102	96	3
BRSTR	102	96	4
BRSI_	102	96	4	96	24	7
BRTAP	102	120	2
BRTAP	102	120	5
BXHLD	102	168	3	216
BXTAP	102	168	4
NMTTP	102	192	7	A	1	M1

T_REC_TAP	490
T_REC_BRK	92
T_REC_XTP	75
T_REC_BXX	36
T_REC_HLD	38
T_REC_XHO	6
T_REC_BHO	10
T_REC_BXH	2
T_REC_STR	82
T_REC_BST	9
T_REC_XST	24
T_REC_XBS	7
T_REC_TTP	132
T_REC_THO	1
T_REC_SLD	115
T_REC_BSL	8
T_REC_ALL	1127
T_NUM_TAP	803
T_NUM_BRK	164
T_NUM_HLD	45
T_NUM_SLD	115
T_NUM_ALL	1127
T_JUDGE_TAP	947
T_JUDGE_HLD	137
T_JUDGE_SLD	123
T_JUDGE_ALL	1207
TTM_EACHPAIRS	166
TTM_SCR_TAP	401500
TTM_SCR_BRK	426400
TTM_SCR_HLD	45000
TTM_SCR_SLD	172500
TTM_SCR_ALL	1045400
TTM_SCR_S	998150
TTM_SCR_SS	1029000
TTM_RAT_ACV	10159

