VERSION	0.00.00	1.03.00
FES_MODE	0
BPM_DEF	190.000	190.000	190.000	190.000
MET_DEF	4	4
RESOLUTION	384
CLK_DEF	384
COMPATIBLE_CODE	MA2

BPM	0	0	190.000
MET	0	0	4	4

TAP	1	0	3
TAP	1	96	3
TAP	1	168	4
TAP	1	192	3
TAP	1	240	0
TAP	1	240	7
BRK	1	288	1
BRK	1	288	6
STR	2	0	6
SI_	2	0	6	96	48	4
XTP	2	48	6
STR	2	96	7
SI_	2	96	7	96	48	3
XTP	2	144	7
STR	2	192	6
SI_	2	192	6	96	48	4
XTP	2	240	6
TAP	2	288	7
XTP	2	336	0
STR	3	0	1
SI_	3	0	1	96	48	3
XTP	3	48	1
STR	3	96	0
SI_	3	96	0	96	48	4
XTP	3	144	0
STR	3	192	1
SI_	3	192	1	96	48	5
XTP	3	240	1
BRK	3	288	7
BRK	4	0	6
XTP	4	48	5
TAP	4	48	7
TAP	4	96	6
TAP	4	144	0
XTP	4	144	5
TAP	4	192	6
TAP	4	240	1
XTP	4	240	5
TAP	4	288	6
TAP	4	336	2
XTP	4	336	5
TAP	5	0	4
TAP	5	48	3
TAP	5	96	2
TAP	5	96	5
TAP	5	144	1
TAP	5	144	6
TAP	5	192	1
TAP	5	192	6
XTP	5	240	0
XTP	5	264	7
BST	5	288	0
SI_	5	288	0	96	48	4
BRK	6	0	6
TAP	6	96	5
TAP	6	144	5
TAP	6	192	2
TAP	6	192	4
TAP	6	240	1
TAP	6	288	0
TAP	6	288	7
TAP	6	336	6
STR	7	0	1
SI_	7	0	1	96	48	4
STR	7	0	5
SI_	7	0	5	96	48	0
TAP	7	192	7
TAP	7	240	3
TAP	7	288	2
TAP	7	288	6
TAP	7	336	1
TAP	7	336	5
BRK	8	0	0
BRK	8	0	4
TAP	8	144	4
TAP	8	144	5
BRK	8	192	3
XHO	8	192	7	144
BRK	8	336	0
TAP	9	48	7
TAP	9	72	0
TAP	9	96	7
TAP	9	144	1
TAP	9	144	6
STR	9	192	1
SI_	9	192	1	96	48	4
STR	9	192	6
SI_	9	192	6	96	48	3
BRK	9	288	1
BRK	9	288	6
XTP	10	0	2
XTP	10	0	5
TAP	10	96	2
TAP	10	96	5
TAP	10	192	3
TAP	10	192	4
TAP	10	288	5
TAP	10	336	4
STR	11	0	6
SCR	11	0	6	96	96	1
STR	11	96	1
SCL	11	96	1	96	96	6
TAP	11	192	3
TAP	11	288	4
TAP	11	336	4
HLD	12	0	5	96
TAP	12	96	4
TAP	12	144	4
HLD	12	192	6	96
TAP	12	288	7
TAP	12	336	7
STR	13	0	5
SCL	13	0	5	96	96	2
STR	13	96	2
SCR	13	96	2	96	96	5
TAP	13	192	0
TAP	13	288	7
TAP	13	336	7
HLD	14	0	6	96
HLD	14	96	4	96
HLD	14	192	3	96
TAP	14	288	2
TAP	14	336	2
STR	15	0	3
SUR	15	0	3	96	96	0
STR	15	96	0
SUL	15	96	0	96	96	3
TAP	15	192	1
TAP	15	288	2
STR	16	0	1
SCR	16	0	1	96	96	4
TAP	16	0	4
TAP	16	96	5
TAP	16	192	5
TAP	16	288	4
TAP	16	288	5
TAP	16	336	4
TAP	16	336	5
XTP	17	48	3
XTP	17	48	6
XTP	17	144	1
XTP	17	144	4
XTP	17	192	0
XTP	17	240	0
XTP	17	288	1
XTP	17	288	7
XTP	17	336	1
XTP	17	336	7
BRK	18	0	2
BRK	18	0	6
TAP	18	96	3
TAP	18	96	5
TAP	18	192	2
TAP	18	192	4
TAP	18	288	5
TAP	18	336	4
STR	19	0	6
SCR	19	0	6	96	96	2
STR	19	96	2
SCL	19	96	2	96	96	6
TAP	19	192	3
TAP	19	288	4
TAP	19	336	4
HLD	20	0	5	96
TAP	20	96	4
TAP	20	144	4
HLD	20	192	6	96
TAP	20	288	7
TAP	20	336	7
STR	21	0	5
SCL	21	0	5	96	96	1
TAP	21	96	1
TAP	21	192	0
TAP	21	240	0
TAP	21	288	7
TAP	21	336	7
HLD	22	0	6	96
HLD	22	96	4	96
TAP	22	192	5
TAP	22	288	2
TAP	22	336	2
TAP	23	0	1
TAP	23	0	3
TAP	23	96	0
TAP	23	96	7
XTP	23	192	1
XTP	23	192	3
XTP	23	264	3
XTP	23	264	4
XTP	23	336	4
XTP	23	336	6
XTP	24	0	4
XST	24	0	6
SI_	24	0	6	96	48	2
XTP	24	96	6
XTP	24	96	7
XST	24	192	1
SI_	24	192	1	96	48	5
XTP	24	192	3
XTP	24	288	0
XTP	24	288	1
XTP	25	0	4
XTP	25	0	6
XTP	25	48	4
XTP	25	48	6
XTP	25	96	3
XTP	25	144	2
XTP	25	192	1
XTP	25	192	3
XTP	25	240	1
XTP	25	240	3
XTP	25	288	0
XTP	25	336	7
XHO	26	0	1	576
XTP	26	0	6
TAP	26	192	3
TAP	26	288	4
TAP	27	0	3
TAP	27	96	5
TAP	27	192	3
XTP	27	288	1
XTP	27	288	7
BRK	28	0	0
XTP	28	16	1
XTP	28	32	2
XTP	28	48	3
BRK	28	96	6
XTP	28	112	5
XTP	28	128	4
XTP	28	144	3
BRK	28	192	1
XTP	28	208	2
XTP	28	224	3
XTP	28	240	4
BRK	28	288	7
XTP	28	304	6
XTP	28	320	5
XTP	28	336	4
BRK	29	0	0
XTP	29	16	1
XTP	29	32	2
XTP	29	48	3
BRK	29	96	6
XTP	29	112	5
XTP	29	128	4
XTP	29	144	3
BRK	29	192	0
BRK	29	192	1
TAP	30	0	2
HLD	30	0	6	576
TAP	30	96	4
TAP	30	192	2
TAP	30	288	5
TAP	30	336	5
TAP	31	0	5
TAP	31	96	2
TAP	31	192	4
XTP	31	288	0
XTP	31	288	6
BRK	32	0	7
XTP	32	16	6
XTP	32	32	5
XTP	32	48	4
BRK	32	96	1
XTP	32	112	2
XTP	32	128	3
XTP	32	144	4
BRK	32	192	6
XTP	32	208	5
XTP	32	224	4
XTP	32	240	3
BRK	32	288	0
XTP	32	304	1
XTP	32	320	2
XTP	32	336	3
BRK	33	0	7
XTP	33	16	6
XTP	33	32	5
XTP	33	48	4
BRK	33	96	1
XTP	33	112	2
XTP	33	128	3
XTP	33	144	4
TTP	33	192	0	C	1	M1
TTP	33	192	1	B	0	M1
TTP	33	192	2	B	0	M1
TTP	33	192	6	B	0	M1
TTP	33	192	7	B	0	M1
STR	34	0	0
SCR	34	0	0	96	96	3
TAP	34	96	4
STR	34	192	7
SCL	34	192	7	96	96	4
TAP	34	288	2
TAP	34	336	2
TAP	35	0	2
TAP	35	96	1
TAP	35	96	3
TAP	35	192	4
XTP	35	288	2
XTP	35	288	6
BRK	36	0	0
XTP	36	16	1
XTP	36	32	2
XTP	36	48	3
BRK	36	96	6
XTP	36	112	5
XTP	36	128	4
XTP	36	144	3
BRK	36	192	1
XTP	36	208	2
XTP	36	224	3
XTP	36	240	4
BRK	36	288	7
XTP	36	304	6
XTP	36	320	5
XTP	36	336	4
BRK	37	0	0
XTP	37	16	1
XTP	37	32	2
XTP	37	48	3
BRK	37	96	6
XTP	37	112	5
XTP	37	128	4
XTP	37	144	3
BRK	37	192	0
BRK	37	192	1
XTP	38	0	2
XST	38	0	4
SCR	38	0	4	96	96	7
TAP	38	96	0
STR	38	192	3
SCL	38	192	3	96	96	0
TAP	38	288	6
TAP	38	336	6
TAP	39	0	6
TAP	39	96	5
TAP	39	96	7
STR	39	192	3
SI_	39	192	3	96	48	7
STR	39	192	4
SI_	39	192	4	96	48	0
XTP	40	0	1
XTP	40	0	6
TAP	40	96	2
TAP	40	96	3
XTP	40	144	0
XTP	40	144	4
TAP	40	240	4
TAP	40	240	5
XTP	40	288	3
XTP	40	288	7
BRK	41	0	2
BRK	41	0	6
TAP	41	48	1
TAP	41	72	0
TAP	41	96	1
TAP	41	144	6
TAP	41	168	7
TAP	41	192	6
XTP	41	240	0
XTP	41	240	7
XTP	41	264	1
XTP	41	264	6
XTP	41	288	2
XTP	41	288	5
TTP	42	0	0	C	1	M1
TTP	42	0	1	B	0	M1
TTP	42	0	6	B	0	M1
HLD	43	0	7	288
HLD	43	192	0	96
BRK	44	0	1
BRK	44	0	6
TAP	44	48	2
TAP	44	96	1
STR	44	96	3
SI_	44	96	3	96	48	6
TAP	44	144	3
STR	44	192	0
SI_	44	192	0	96	48	4
TAP	44	240	0
TAP	44	288	7
TAP	44	336	6
TAP	45	0	3
STR	45	0	5
SI_	45	0	5	96	48	0
TAP	45	48	5
STR	45	96	1
SI_	45	96	1	96	48	4
TAP	45	144	1
XTP	45	192	5
XTP	45	240	6
XTP	45	288	3
XTP	45	288	7
TAP	46	0	2
TAP	46	0	4
TAP	46	48	1
TAP	46	96	4
TAP	46	144	3
TAP	46	144	5
TAP	46	192	6
TAP	46	240	7
TAP	46	288	0
STR	46	336	1
SI_	46	336	1	96	48	4
TAP	46	336	3
TAP	47	48	7
STR	47	96	6
SCL	47	96	6	96	96	0
TAP	47	144	3
XTP	47	192	2
XTP	48	0	0
XTP	48	0	6
TAP	48	48	5
STR	48	96	1
SI_	48	96	1	96	48	4
TAP	48	144	3
STR	48	192	1
SI_	48	192	1	96	48	5
TAP	48	240	7
TAP	48	288	1
TAP	48	336	4
TAP	49	0	3
TAP	49	0	6
STR	49	48	7
SI_	49	48	7	96	48	3
TAP	49	96	4
XTP	49	144	7
XTP	49	192	1
BRK	49	288	0
BRK	49	288	4
XTP	50	0	1
XTP	50	0	5
XTP	50	48	0
XTP	50	48	6
XST	50	96	1
SI_	50	96	1	96	48	4
XST	50	96	5
SI_	50	96	5	96	48	3
XTP	50	144	0
XTP	50	144	6
XTP	50	192	1
XTP	50	192	5
XTP	50	288	2
XTP	50	288	5
XTP	50	336	0
XTP	50	336	7
XTP	51	48	2
XTP	51	48	6
XST	51	96	1
SI_	51	96	1	96	48	4
XST	51	96	5
SI_	51	96	5	96	48	0
XTP	51	144	2
XTP	51	144	6
XTP	51	192	1
XTP	51	192	5
TTP	51	204	0	C	1	M1
TAP	52	0	2
TAP	52	0	7
TAP	52	96	3
STR	52	96	6
SI_	52	96	6	96	48	2
TAP	52	144	6
STR	52	192	4
SI_	52	192	4	96	48	0
TAP	52	240	4
TAP	52	288	7
TAP	52	336	6
TAP	53	0	1
TAP	53	0	5
TAP	53	48	2
STR	53	96	1
SI_	53	96	1	96	48	4
TAP	53	96	3
TAP	53	144	1
STR	53	192	0
SI_	53	192	0	96	48	5
TAP	53	240	0
TAP	53	288	3
TAP	54	0	3
TAP	54	0	4
TAP	54	48	5
TAP	54	96	6
TAP	54	144	0
TAP	54	144	7
TAP	54	192	1
TAP	54	240	2
TAP	54	288	3
TAP	54	336	4
STR	54	336	5
SI_	54	336	5	96	48	0
TAP	55	48	1
STR	55	96	2
SCL	55	96	2	96	96	4
TAP	55	144	7
XTP	55	192	6
XTP	56	0	1
XTP	56	0	5
TAP	56	48	4
STR	56	96	2
SI_	56	96	2	96	48	7
TAP	56	144	0
STR	56	192	2
SI_	56	192	2	96	48	6
TAP	56	240	4
TAP	56	288	2
TAP	56	336	3
TAP	57	0	0
TAP	57	0	4
TAP	57	48	5
STR	57	96	6
SI_	57	96	6	96	48	2
TAP	57	144	7
BRK	57	192	4
BRK	57	192	6
XST	57	288	0
SI_	57	288	0	96	48	4
TAP	58	0	0
XST	58	0	6
SCL	58	0	6	96	48	3
XST	58	96	2
SCL	58	96	2	96	48	7
TAP	58	96	6
TAP	58	192	2
XST	58	192	4
SI_	58	192	4	96	48	7
XST	58	288	0
SF_	58	288	0	96	48	4
TAP	58	288	4
BRK	59	0	0
TTP	59	12	0	C	1	M1
XTP	59	192	1
XTP	59	216	7
XTP	59	240	1
XTP	59	264	7
BRK	59	288	1
XTP	60	0	2
XTP	60	0	6
TAP	60	96	1
TAP	60	96	5
TAP	60	192	2
TAP	60	240	2
TAP	60	288	4
TAP	60	336	5
TAP	61	0	6
TAP	61	24	7
TAP	61	48	6
TAP	61	96	1
TAP	61	120	0
TAP	61	144	1
TAP	61	192	6
TAP	61	240	6
TAP	61	288	4
TAP	61	336	5
TAP	62	0	1
TAP	62	24	3
TAP	62	48	1
TAP	62	96	6
TAP	62	120	4
TAP	62	144	6
TAP	62	192	7
TAP	62	240	0
TAP	62	288	1
TAP	62	336	2
XTP	63	0	3
XTP	63	0	5
BRK	63	48	6
XTP	63	96	2
XTP	63	96	4
BRK	63	144	1
XTP	63	192	2
XTP	63	192	5
BRK	63	240	7
BRK	63	264	0
BRK	63	288	7
XTP	64	0	2
XTP	64	0	5
TAP	64	144	6
HLD	64	192	6	72
HLD	64	264	5	72
TAP	64	336	4
HLD	65	0	3	72
HLD	65	72	2	72
TAP	65	144	1
HLD	65	192	5	72
HLD	65	264	6	72
TAP	65	336	7
TAP	66	0	5
TAP	66	0	7
TAP	66	48	4
TAP	66	96	3
TAP	66	144	2
TAP	66	192	0
TAP	66	192	1
TAP	66	240	2
STR	66	288	3
SCL	66	288	3	96	48	0
TAP	66	336	4
BST	67	0	3
SCR	67	0	3	96	48	6
BST	67	96	3
SI_	67	96	3	96	48	7
BRK	67	192	3
BRK	67	288	0
BRK	67	288	6
STR	68	0	1
SI_	68	0	1	96	48	5
TAP	68	96	1
TAP	68	96	4
STR	68	192	3
SCL	68	192	3	96	48	0
STR	68	192	7
SCL	68	192	7	96	48	4
TAP	68	240	3
TAP	68	240	7
TAP	68	288	3
TAP	68	288	7
XTP	69	0	3
XTP	69	0	7
TAP	69	48	1
TAP	69	48	5
STR	69	96	3
SUL	69	96	3	96	48	7
STR	69	96	7
SUL	69	96	7	96	48	3
TAP	69	192	3
TAP	69	192	7
XST	69	288	0
SUR	69	288	0	96	48	4
XTP	69	288	4
HLD	70	0	5	96
BRK	70	96	7
BRK	70	120	6
BRK	70	144	7
TAP	70	192	0
TAP	70	192	5
TAP	70	240	1
XTP	70	288	2
XTP	70	288	7
TAP	71	0	4
STR	71	0	5
SUL	71	0	5	96	192	2
TTP	71	96	0	C	1	M1
XTP	71	240	0
XTP	71	288	0
XTP	72	0	1
STR	72	0	7
SCL	72	0	7	96	96	4
STR	72	96	4
SCL	72	96	4	96	96	1
STR	72	192	1
SCL	72	192	1	96	96	6
TAP	72	288	6
STR	73	0	4
SUL	73	0	4	96	96	7
STR	73	96	7
SUL	73	96	7	96	96	2
STR	73	192	2
SUL	73	192	2	96	96	5
STR	73	288	5
SCR	73	288	5	96	384	4
TTP	74	0	0	C	1	M1
BRK	75	0	0
XTP	76	0	0
XTP	76	24	7
XTP	76	48	0
XTP	76	72	7
XTP	76	96	0
XTP	76	120	7
XTP	76	144	0
XTP	76	168	7
XTP	76	192	1
XTP	76	192	6
XTP	76	288	3
XTP	76	288	4
BST	77	0	1
SI_	77	0	1	96	48	5
BRK	77	0	5
TAP	77	48	2
TAP	77	48	4
TAP	77	96	1
TAP	77	96	5
TAP	77	144	6
STR	77	192	7
SI_	77	192	7	96	48	3
TAP	77	240	4
TAP	77	240	6
TAP	77	288	3
TAP	77	288	7
TAP	77	336	2
TAP	78	0	0
TAP	78	0	1
TAP	78	48	2
TAP	78	48	7
TAP	78	96	3
STR	78	96	6
SCR	78	96	6	96	96	4
TAP	78	144	4
TAP	78	144	5
TAP	78	192	3
XTP	78	192	6
TAP	79	0	0
TAP	79	0	7
TAP	79	48	1
TAP	79	72	3
TAP	79	96	2
TAP	79	144	5
TAP	79	168	4
TAP	79	192	6
TAP	79	240	0
TAP	79	240	7
TAP	79	288	1
TAP	79	288	6
TAP	79	336	2
TAP	79	336	5
TAP	80	0	3
TAP	80	0	4
TAP	80	48	5
TAP	80	72	4
TAP	80	96	6
TAP	80	120	3
TAP	80	144	7
TAP	80	168	2
TAP	80	192	0
TAP	80	216	1
TAP	80	240	0
BRK	80	288	3
BRK	80	288	6
STR	81	0	1
SI_	81	0	1	96	48	4
TAP	81	0	5
TAP	81	48	2
TAP	81	48	4
TAP	81	96	1
TAP	81	96	5
TAP	81	144	7
TAP	81	192	2
STR	81	192	6
SI_	81	192	6	96	48	3
TAP	81	240	3
TAP	81	240	5
TAP	81	288	2
TAP	81	288	6
TAP	81	336	0
STR	82	0	1
SI_	82	0	1	96	48	5
STR	82	48	0
SI_	82	48	0	96	48	4
STR	82	96	1
SCR	82	96	1	96	96	7
TAP	82	144	0
BRK	82	192	1
XTP	83	0	2
XTP	83	0	6
XTP	83	48	3
XTP	83	48	5
XST	83	96	1
SI_	83	96	1	96	48	4
XST	83	96	7
SI_	83	96	7	96	48	4
XTP	83	144	2
XTP	83	144	6
XTP	83	192	1
XTP	83	192	7
XTP	83	288	3
XTP	83	288	5
XTP	83	336	1
XTP	83	336	7
XTP	84	48	0
XTP	84	48	4
XST	84	96	2
SI_	84	96	2	96	48	5
XST	84	96	6
SI_	84	96	6	96	48	1
XTP	84	144	0
XTP	84	144	4
XTP	84	192	2
XTP	84	192	6
XTP	84	288	3
XST	84	288	7
SF_	84	288	7	96	48	3
BRK	85	96	1
BRK	85	96	5
TAP	85	192	2
STR	85	192	6
SI_	85	192	6	96	48	2
TAP	85	240	3
TAP	85	240	5
TAP	85	288	2
TAP	85	288	6
TAP	85	336	1
STR	86	0	0
SI_	86	0	0	96	48	4
TAP	86	0	4
TAP	86	48	1
TAP	86	48	3
STR	86	96	0
SCR	86	96	0	96	96	6
TAP	86	96	4
TAP	86	144	6
XTP	86	192	0
TAP	86	192	5
TAP	87	0	1
TAP	87	0	5
TAP	87	48	6
TAP	87	72	7
TAP	87	96	5
TAP	87	144	2
TAP	87	168	3
TAP	87	192	1
TAP	87	240	0
TAP	87	240	7
TAP	87	288	1
TAP	87	288	6
TAP	87	336	2
TAP	87	336	5
TAP	88	0	3
TAP	88	0	4
TAP	88	48	2
TAP	88	72	3
TAP	88	96	1
TAP	88	120	4
TAP	88	144	0
TAP	88	168	5
TAP	88	192	7
TAP	88	216	6
TAP	88	240	7
BRK	88	288	1
BRK	88	288	4
XTP	89	0	2
STR	89	0	6
SI_	89	0	6	96	48	2
TAP	89	48	3
TAP	89	48	5
TAP	89	96	2
STR	89	96	6
SCR	89	96	6	96	48	1
TAP	89	144	1
STR	89	192	6
SCL	89	192	6	96	48	3
TAP	89	240	4
TAP	89	288	6
TAP	89	336	0
STR	90	0	1
SI_	90	0	1	96	48	5
TAP	90	0	5
TAP	90	48	2
TAP	90	48	4
STR	90	96	1
SCL	90	96	1	96	96	3
TAP	90	96	5
TAP	90	144	6
XTP	90	192	1
TAP	90	192	7
XST	91	0	7
SI_	91	0	7	96	48	3
XST	91	48	0
SI_	91	48	0	96	48	4
XST	91	96	7
SI_	91	96	7	96	48	5
XST	91	144	0
SI_	91	144	0	96	48	2
XST	91	192	7
SI_	91	192	7	96	48	3
XST	91	240	0
SI_	91	240	0	96	48	4
XTP	91	288	7
XTP	91	336	0
HLD	92	0	6	192
STR	92	192	4
SI_	92	192	4	96	48	0
BRK	92	288	4
BRK	92	288	5
BRK	93	0	1
BRK	93	0	6
STR	93	96	5
SCR	93	96	5	96	48	0
XTP	93	144	5
STR	93	192	3
SUL	93	192	3	96	48	7
XTP	93	240	3
STR	93	288	4
SUR	93	288	4	96	48	0
XTP	93	336	4
STR	94	0	2
SCL	94	0	2	96	48	7
XTP	94	48	2
STR	94	96	5
SUR	94	96	5	96	48	1
XTP	94	144	5
STR	94	192	4
SI_	94	192	4	96	48	0
XTP	94	240	4
XTP	94	288	6
BRK	95	0	1
TAP	95	48	0
XTP	95	48	2
TAP	95	96	1
XTP	95	144	2
TAP	95	144	7
TAP	95	192	1
XTP	95	240	2
TAP	95	240	6
TAP	95	288	1
XTP	95	336	2
TAP	95	336	5
TAP	96	0	3
TAP	96	0	4
TAP	96	48	2
TAP	96	72	3
TAP	96	96	1
TAP	96	144	5
TAP	96	168	4
TAP	96	192	6
XTP	96	240	0
XTP	96	264	7
XST	96	288	1
SI_	96	288	1	96	48	4
XST	96	288	6
SI_	96	288	6	96	48	3
BRK	97	0	1
BRK	97	0	6
XTP	97	96	2
XTP	97	96	5
TAP	97	192	1
TAP	97	192	3
TAP	97	240	2
TAP	97	288	3
TAP	97	288	4
TAP	97	336	5
STR	98	0	2
SCL	98	0	2	96	48	7
STR	98	0	6
SCL	98	0	6	96	48	3
XTP	98	96	2
XTP	98	96	6
XTP	98	192	0
XTP	98	192	4
TAP	98	240	5
BST	98	288	3
SCL	98	288	3	96	48	0
BST	98	288	6
SCL	98	288	6	96	48	3
BRK	99	0	3
BRK	99	0	6
TAP	99	144	2
TAP	99	144	3
XHO	99	192	0	144
BRK	99	192	4
BRK	99	336	7
XTP	100	48	1
XTP	100	48	6
XTP	100	72	2
XTP	100	72	5
XTP	100	96	3
XTP	100	96	4
XTP	100	144	3
XTP	100	144	4
XST	100	192	1
SI_	100	192	1	96	48	5
XTP	100	192	6
XTP	100	288	1
BST	100	288	7
SCL	100	288	7	96	288	0
BRK	102	48	1
BRK	102	48	6
BRK	102	96	0
BRK	102	96	7
BRK	102	120	0
BRK	102	120	7
TTP	102	168	0	B	0	M1
TTP	102	168	1	E	0	M1
TTP	102	168	7	B	0	M1
TTP	102	168	7	E	0	M1
TTP	102	176	0	C	1	M1
TTP	102	176	1	B	0	M1
TTP	102	176	6	B	0	M1
TTP	102	184	2	B	0	M1
TTP	102	184	5	B	0	M1
TTP	102	192	3	E	0	M1
TTP	102	192	5	E	0	M1

T_REC_TAP	383
T_REC_BRK	82
T_REC_XTP	241
T_REC_HLD	20
T_REC_XHO	3
T_REC_STR	81
T_REC_BST	7
T_REC_XST	27
T_REC_TTP	23
T_REC_THO	0
T_REC_SLD	115
T_REC_ALL	982
T_NUM_TAP	755
T_NUM_BRK	89
T_NUM_HLD	23
T_NUM_SLD	115
T_NUM_ALL	982
T_JUDGE_TAP	844
T_JUDGE_HLD	74
T_JUDGE_SLD	115
T_JUDGE_ALL	1033
TTM_EACHPAIRS	208
TTM_SCR_TAP	377500
TTM_SCR_BRK	231400
TTM_SCR_HLD	23000
TTM_SCR_SLD	172500
TTM_SCR_ALL	804400
TTM_SCR_S	771650
TTM_SCR_SS	795500
TTM_RAT_ACV	10111

