VERSION	0.00.00	1.03.00
FES_MODE	0
BPM_DEF	190.000	190.000	190.000	190.000
MET_DEF	4	4
RESOLUTION	384
CLK_DEF	384
COMPATIBLE_CODE	MA2

BPM	0	0	190.000
MET	0	0	4	4

TAP	1	0	3
TAP	1	96	3
TAP	1	192	3
XTP	1	288	1
XTP	1	288	5
TAP	2	0	3
TAP	2	0	6
TAP	2	96	7
TAP	2	192	1
TAP	2	192	4
TAP	2	288	0
HLD	3	0	5	96
HLD	3	96	7	96
HLD	3	192	0	96
HLD	3	288	2	96
TAP	4	0	3
TAP	4	96	1
TAP	4	96	4
TAP	4	192	4
TAP	4	192	5
TAP	4	288	3
TAP	4	288	6
STR	5	0	1
SI_	5	0	1	96	96	5
XTP	5	192	7
XTP	5	288	7
TAP	6	0	1
TAP	6	0	4
TAP	6	96	0
TAP	6	192	3
TAP	6	192	6
TAP	6	288	7
HLD	7	0	2	96
HLD	7	96	0	96
HLD	7	192	7	96
TAP	7	288	5
TAP	8	0	4
TAP	8	0	6
TAP	8	144	1
TAP	8	144	3
TAP	8	192	1
TAP	8	192	3
TAP	8	336	0
TAP	8	336	7
XTP	9	48	3
XTP	9	48	4
XTP	9	96	3
XTP	9	96	4
BRK	9	192	1
BRK	9	192	6
TAP	10	0	7
TAP	10	96	6
HLD	10	192	5	96
TAP	10	288	4
TAP	11	0	3
TAP	11	96	2
HLD	11	192	1	96
TAP	11	288	0
TAP	12	0	0
TAP	12	96	1
HLD	12	192	2	96
TAP	12	288	3
TAP	13	0	4
TAP	13	96	5
HLD	13	192	6	96
TAP	13	288	7
TAP	14	0	7
TAP	14	96	6
HLD	14	192	5	96
TAP	14	288	4
TAP	15	0	3
TAP	15	96	2
HLD	15	192	1	96
TAP	15	288	0
TAP	16	0	2
TAP	16	0	7
TAP	16	96	3
TAP	16	96	6
TAP	16	192	4
HLD	16	192	5	96
TAP	16	288	3
TAP	16	336	3
TAP	17	48	2
TAP	17	48	6
TAP	17	144	0
TAP	17	192	0
XTP	17	288	1
XTP	17	288	7
XTP	18	0	2
XTP	18	0	6
HLD	18	96	5	96
TAP	18	192	4
HLD	18	288	2	96
TAP	19	0	3
STR	19	96	5
SI_	19	96	5	96	96	2
XTP	19	288	0
XTP	20	0	0
HLD	20	96	2	96
TAP	20	192	3
HLD	20	288	5	96
STR	21	0	4
SI_	21	0	4	96	96	0
STR	21	192	7
SI_	21	192	7	96	96	3
XTP	22	0	0
TAP	22	96	1
TAP	22	96	3
TAP	22	192	4
TAP	22	192	6
XTP	22	288	7
XTP	23	0	7
TAP	23	96	0
TAP	23	96	6
TAP	23	192	2
TAP	23	192	4
TAP	23	288	1
STR	23	288	5
SCL	23	288	5	96	240	6
TAP	25	0	3
TAP	25	0	4
TAP	25	96	1
TAP	25	96	6
TAP	25	192	0
TAP	25	192	7
TAP	25	288	2
TAP	25	288	5
HLD	26	0	1	96
TAP	26	96	0
HLD	26	192	6	96
TAP	26	288	7
HLD	27	0	1	96
TAP	27	96	0
TAP	27	192	2
TAP	27	192	7
BRK	27	288	3
BRK	27	288	6
HLD	28	0	4	48
HLD	28	0	5	48
HLD	28	96	4	48
HLD	28	96	5	48
HLD	28	192	3	48
HLD	28	192	6	48
HLD	28	288	2	48
HLD	28	288	7	48
HLD	29	0	0	48
HLD	29	0	1	48
STR	29	96	0
SI_	29	96	0	96	96	5
STR	29	96	1
SI_	29	96	1	96	96	4
BRK	30	0	7
TAP	30	96	2
TAP	30	96	6
HLD	30	192	1	96
TAP	30	288	0
HLD	31	0	6	96
TAP	31	96	7
TAP	31	192	0
TAP	31	192	5
BRK	31	288	1
BRK	31	288	4
HLD	32	0	2	48
HLD	32	0	3	48
HLD	32	96	2	48
HLD	32	96	3	48
HLD	32	192	1	48
HLD	32	192	4	48
HLD	32	288	0	48
HLD	32	288	5	48
HLD	33	0	6	48
HLD	33	0	7	48
STR	33	96	6
SCL	33	96	6	96	96	3
STR	33	96	7
SCR	33	96	7	96	96	2
HLD	34	0	1	96
TAP	34	96	0
HLD	34	192	6	96
TAP	34	288	7
HLD	35	0	2	96
TAP	35	96	3
TAP	35	192	1
TAP	35	192	4
BRK	35	288	3
BRK	35	288	6
HLD	36	0	4	48
HLD	36	0	5	48
HLD	36	96	4	48
HLD	36	96	5	48
HLD	36	192	3	48
HLD	36	192	6	48
HLD	36	288	2	48
HLD	36	288	7	48
HLD	37	0	0	48
HLD	37	0	1	48
STR	37	96	0
SI_	37	96	0	96	96	4
STR	37	96	1
SI_	37	96	1	96	96	5
HLD	38	0	6	96
TAP	38	96	7
HLD	38	192	1	96
TAP	38	288	0
HLD	39	0	5	96
TAP	39	96	4
TAP	39	192	3
TAP	39	192	6
XTP	39	288	1
XTP	39	288	4
HLD	40	0	2	48
HLD	40	0	3	48
HLD	40	96	2	48
HLD	40	96	3	48
HLD	40	192	1	48
HLD	40	192	4	48
HLD	40	288	0	48
HLD	40	288	5	48
HLD	41	0	6	48
HLD	41	0	7	48
STR	41	96	6
SCL	41	96	6	96	96	3
STR	41	96	7
SUL	41	96	7	96	96	2
TAP	42	0	0
HLD	42	48	0	96
TAP	42	144	7
TAP	42	192	7
TAP	42	288	1
TAP	42	288	6
TAP	43	0	2
TAP	43	0	5
STR	43	96	3
SI_	43	96	3	96	96	0
STR	43	96	4
SI_	43	96	4	96	96	7
TAP	44	0	1
TAP	44	0	7
TAP	44	96	1
TAP	44	96	2
TAP	44	192	0
TAP	44	192	6
TAP	44	288	5
TAP	44	288	6
TAP	45	0	1
TAP	45	0	7
STR	45	96	1
SCL	45	96	1	96	96	6
STR	45	96	2
SCR	45	96	2	96	96	5
TAP	46	0	5
TAP	46	0	6
TAP	46	96	3
TAP	46	144	3
TAP	46	192	4
STR	46	288	5
SI_	46	288	5	96	96	2
TAP	47	0	1
STR	47	96	0
SCL	47	96	0	96	96	5
SCR	47	96	0	96	96	3
TAP	48	0	0
TAP	48	0	6
TAP	48	96	5
TAP	48	96	6
TAP	48	192	1
TAP	48	192	7
TAP	48	288	1
TAP	48	288	2
TAP	49	0	0
TAP	49	0	6
STR	49	96	5
SI_	49	96	5	96	96	1
STR	49	96	6
SI_	49	96	6	96	96	2
TAP	50	0	1
TAP	50	0	2
TAP	50	96	3
TAP	50	96	4
TAP	50	192	5
TAP	50	192	6
TAP	50	288	0
TAP	50	288	7
TAP	50	336	0
TAP	50	336	7
TAP	51	48	2
TAP	51	48	5
STR	51	96	2
SI_	51	96	2	96	96	7
STR	51	96	5
SI_	51	96	5	96	96	0
TAP	52	0	3
TAP	52	0	5
TAP	52	96	5
TAP	52	96	6
TAP	52	192	2
TAP	52	192	4
TAP	52	288	1
TAP	52	288	2
TAP	53	0	3
TAP	53	0	5
STR	53	96	5
SCL	53	96	5	96	96	2
STR	53	96	6
SCR	53	96	6	96	96	1
TAP	54	0	1
TAP	54	0	2
TAP	54	96	7
TAP	54	144	7
TAP	54	192	0
STR	54	288	1
SCL	54	288	1	96	96	6
STR	55	0	4
SXL	55	0	4	96	192	4
SXR	55	0	4	96	192	4
TAP	56	0	2
TAP	56	0	4
TAP	56	96	1
TAP	56	96	2
TAP	56	192	3
TAP	56	192	5
TAP	56	288	5
TAP	56	288	6
TAP	57	0	2
TAP	57	0	4
STR	57	96	1
SLL	57	96	1	96	96	5
SLR	57	96	1	96	96	5
TAP	57	96	2
TAP	58	0	5
TAP	58	0	6
TAP	58	96	0
TAP	58	96	7
TAP	58	192	1
TAP	58	192	2
TAP	58	288	3
TAP	58	288	4
TAP	59	0	2
TAP	59	0	5
TAP	59	192	1
TAP	59	192	6
TAP	59	288	3
TAP	59	288	4
BRK	60	0	0
TAP	60	96	6
TAP	60	144	6
TAP	60	192	4
TAP	60	288	3
TAP	60	288	7
TAP	61	0	2
TAP	61	48	2
TAP	61	96	4
TAP	61	144	4
TAP	61	192	3
TAP	61	288	2
TAP	61	288	5
TAP	62	0	3
TAP	62	0	4
TAP	62	96	1
TAP	62	96	6
TAP	62	192	0
TAP	62	216	7
TAP	62	240	0
TAP	62	264	7
TAP	62	288	0
TAP	63	0	1
TAP	63	0	3
TAP	63	96	3
TAP	63	96	4
TAP	63	192	4
STR	63	192	6
SI_	63	192	6	96	96	2
HLD	64	0	0	144
TAP	64	144	6
HLD	64	192	6	72
HLD	64	264	5	72
TAP	64	336	4
HLD	65	0	3	72
HLD	65	72	2	72
TAP	65	144	1
HLD	65	192	1	72
HLD	65	264	2	72
TAP	65	336	3
TAP	66	0	4
TAP	66	48	4
TAP	66	96	2
TAP	66	144	2
TAP	66	192	5
TAP	66	240	5
TAP	66	288	3
TAP	66	336	3
TAP	67	0	2
TAP	67	0	4
TAP	67	96	3
TAP	67	96	5
TAP	67	192	1
TAP	67	192	4
TAP	67	288	3
HLD	67	288	6	96
STR	68	0	2
SI_	68	0	2	96	96	5
TAP	68	192	7
TAP	68	240	7
TAP	68	288	7
TAP	69	0	4
TAP	69	0	6
TAP	69	96	1
TAP	69	96	3
TAP	69	192	0
TAP	69	240	0
TAP	69	288	1
TAP	69	288	7
HLD	70	0	3	48
HLD	70	0	6	48
HLD	70	96	2	48
HLD	70	96	4	48
HLD	70	192	1	48
HLD	70	192	5	48
HLD	70	288	0	48
HLD	70	288	7	48
HLD	71	0	1	48
HLD	71	0	4	48
HLD	71	96	3	48
HLD	71	96	5	48
HLD	71	192	2	48
HLD	71	192	6	48
BRK	71	288	0
BRK	71	288	7
XTP	72	0	1
STR	72	96	2
SCR	72	96	2	96	96	5
STR	72	96	6
SCR	72	96	6	96	96	1
XTP	73	0	7
STR	73	96	1
SCL	73	96	1	96	96	6
STR	73	96	5
SCL	73	96	5	96	96	2
XTP	74	0	0
TAP	74	96	2
TAP	74	96	4
XTP	74	192	7
TAP	74	288	3
TAP	74	288	5
THO	75	0	0	192	C	0	M1
TAP	76	0	0
TAP	76	0	7
TAP	76	192	3
TAP	76	192	5
BRK	76	288	1
BRK	76	288	7
TAP	77	0	0
TAP	77	0	6
TAP	77	96	5
TAP	77	96	6
TAP	77	144	7
TAP	77	192	1
TAP	77	192	7
TAP	77	288	1
TAP	77	288	2
TAP	78	0	0
TAP	78	0	6
STR	78	96	5
SCL	78	96	5	96	96	2
STR	78	96	6
SCR	78	96	6	96	96	1
TAP	79	0	1
TAP	79	0	2
TAP	79	96	4
TAP	79	144	4
TAP	79	192	3
STR	79	288	2
SI_	79	288	2	96	96	5
TAP	80	0	6
STR	80	96	7
SCL	80	96	7	96	96	4
SCR	80	96	7	96	96	2
TAP	81	0	1
TAP	81	0	7
TAP	81	96	1
TAP	81	96	2
TAP	81	144	0
TAP	81	192	0
TAP	81	192	6
TAP	81	288	5
TAP	81	288	6
TAP	82	0	1
TAP	82	0	7
STR	82	96	1
SI_	82	96	1	96	96	6
STR	82	96	2
SI_	82	96	2	96	96	5
XTP	83	0	5
XTP	83	0	6
XTP	83	48	5
XTP	83	48	6
XTP	83	96	4
XTP	83	96	7
XTP	83	192	1
XTP	83	192	2
XTP	83	240	1
XTP	83	240	2
XTP	83	288	0
XTP	83	288	3
XTP	83	336	0
XTP	83	336	3
XTP	84	48	4
XTP	84	48	7
XST	84	96	4
SI_	84	96	4	96	96	0
XST	84	96	7
SI_	84	96	7	96	96	3
STR	85	0	1
SI_	85	0	1	96	48	7
STR	85	0	2
SI_	85	0	2	96	48	4
XTP	85	192	4
XTP	85	192	7
TAP	85	288	5
TAP	85	288	6
TAP	86	0	2
TAP	86	0	4
STR	86	96	1
SCL	86	96	1	96	96	6
STR	86	96	2
SCR	86	96	2	96	96	5
TAP	87	0	5
TAP	87	0	6
TAP	87	96	0
TAP	87	144	0
TAP	87	192	7
STR	87	288	6
SCR	87	288	6	96	96	1
STR	88	0	3
SXL	88	0	3	96	192	3
SXR	88	0	3	96	192	3
TAP	89	0	3
TAP	89	0	5
TAP	89	96	5
TAP	89	96	6
TAP	89	144	7
TAP	89	192	0
TAP	89	192	7
TAP	89	288	1
TAP	89	288	2
TAP	90	0	3
TAP	90	0	5
STR	90	96	5
SCL	90	96	5	96	96	2
STR	90	96	6
SCR	90	96	6	96	96	1
XTP	91	0	1
XTP	91	0	2
XTP	91	48	1
XTP	91	48	2
XTP	91	96	0
XTP	91	96	3
XTP	91	192	5
XTP	91	192	6
XTP	91	240	5
XTP	91	240	6
XTP	91	288	4
XTP	91	288	7
XTP	92	0	0
XTP	92	0	3
XTP	92	96	1
XTP	92	96	2
XTP	92	192	3
XTP	92	192	4
XST	92	288	5
SCL	92	288	5	96	576	6
XTP	92	288	6
TTP	93	0	0	C	1	M1
TAP	95	0	6
TAP	95	48	6
TAP	95	96	4
TAP	95	192	1
TAP	95	240	1
TAP	95	288	3
TAP	96	0	4
TAP	96	0	5
TAP	96	96	3
TAP	96	96	6
TAP	96	192	2
TAP	96	192	3
BRK	96	288	0
HLD	97	0	5	192
TAP	97	96	4
HLD	97	192	2	192
TAP	97	288	3
HLD	98	0	6	192
TAP	98	96	7
HLD	98	192	1	192
TAP	98	288	0
TAP	99	0	6
TAP	99	144	4
TAP	99	144	5
TAP	99	192	3
TAP	99	192	6
TAP	99	336	2
TAP	99	336	3
TAP	100	48	0
TAP	100	48	7
TAP	100	96	0
TAP	100	96	7
TAP	100	192	3
TAP	100	192	4
BRK	100	288	2
BRK	100	288	5
TTP	101	0	0	B	0	M1
TTP	101	0	1	B	0	M1
TTP	101	96	6	B	0	M1
TTP	101	96	7	B	0	M1
TTP	101	192	2	B	0	M1
TTP	101	192	3	B	0	M1
TTP	101	288	4	B	0	M1
TTP	101	288	5	B	0	M1
XTP	102	48	0
XTP	102	48	7
XTP	102	96	7
XTP	102	120	0
XTP	102	168	1
XTP	102	168	6

T_REC_TAP	327
T_REC_BRK	17
T_REC_XTP	66
T_REC_HLD	96
T_REC_XHO	0
T_REC_STR	48
T_REC_BST	0
T_REC_XST	3
T_REC_TTP	9
T_REC_THO	1
T_REC_SLD	56
T_REC_ALL	623
T_NUM_TAP	453
T_NUM_BRK	17
T_NUM_HLD	97
T_NUM_SLD	56
T_NUM_ALL	623
T_JUDGE_TAP	470
T_JUDGE_HLD	151
T_JUDGE_SLD	56
T_JUDGE_ALL	677
TTM_EACHPAIRS	191
TTM_SCR_TAP	226500
TTM_SCR_BRK	44200
TTM_SCR_HLD	97000
TTM_SCR_SLD	84000
TTM_SCR_ALL	451700
TTM_SCR_S	436500
TTM_SCR_SS	450000
TTM_RAT_ACV	10037

