VERSION	0.00.00	1.03.00
FES_MODE	0
BPM_DEF	190.000	190.000	190.000	190.000
MET_DEF	4	4
RESOLUTION	384
CLK_DEF	384
COMPATIBLE_CODE	MA2

BPM	0	0	190.000
MET	0	0	4	4

TAP	2	0	2
TAP	2	96	2
TAP	2	192	3
TAP	2	288	3
TAP	3	0	4
TAP	3	96	4
TAP	3	192	3
TAP	3	192	5
TAP	4	0	6
TAP	4	96	6
TAP	4	192	7
TAP	4	288	7
TAP	5	0	0
TAP	5	96	0
TAP	5	192	0
TAP	5	192	7
TAP	6	0	1
TAP	6	96	1
TAP	6	192	0
TAP	6	288	0
TAP	7	0	7
TAP	7	96	7
TAP	7	192	0
TAP	7	192	6
XTP	8	0	4
XTP	8	0	5
XTP	8	192	2
XTP	8	192	3
XTP	9	0	3
XTP	9	0	4
XTP	9	96	3
XTP	9	96	4
BRK	9	192	2
BRK	9	192	5
HLD	10	0	6	192
TAP	10	192	7
HLD	11	0	1	192
TAP	11	192	0
HLD	12	0	6	192
TAP	12	192	7
HLD	13	0	0	96
HLD	13	0	1	96
TAP	13	192	0
TAP	13	192	1
HLD	14	0	2	192
TAP	14	192	3
HLD	15	0	5	192
TAP	15	192	4
HLD	16	0	2	192
TAP	16	192	3
XTP	17	0	3
XTP	17	0	4
XTP	17	192	2
XTP	17	192	5
TAP	18	0	6
TAP	18	96	6
TAP	18	192	6
TAP	18	192	7
TAP	19	0	1
TAP	19	96	1
TAP	19	192	0
TAP	19	192	1
TAP	20	0	6
TAP	20	96	6
TAP	20	192	6
TAP	20	192	7
TAP	21	0	0
TAP	21	96	0
TAP	21	192	1
TAP	21	192	7
TAP	22	0	2
TAP	22	96	2
TAP	22	192	2
TAP	22	192	3
TAP	23	0	5
TAP	23	96	5
TAP	23	192	4
TAP	23	192	5
TAP	24	0	2
TAP	24	96	2
TAP	24	192	3
TAP	24	288	3
XTP	25	0	3
XTP	25	0	4
XTP	25	96	2
XTP	25	96	5
XTP	25	192	1
XTP	25	192	6
HLD	26	0	5	192
HLD	26	192	4	192
HLD	27	0	3	192
XTP	27	192	2
TTP	28	0	1	B	0	L1
TTP	28	192	0	B	0	L1
TTP	29	0	7	B	0	L1
TTP	29	192	6	B	0	L1
XHO	30	0	1	192
HLD	30	192	0	192
HLD	31	0	7	192
XTP	31	192	6
TTP	32	0	5	B	0	L1
TTP	32	192	4	B	0	L1
TTP	33	0	3	B	0	L1
TTP	33	192	2	B	0	L1
XHO	34	0	5	192
HLD	34	192	4	192
HLD	35	0	3	192
XTP	35	192	2
TTP	36	0	1	B	0	L1
TTP	36	192	0	B	0	L1
TTP	37	0	7	B	0	L1
TTP	37	192	6	B	0	L1
XHO	38	0	1	192
HLD	38	192	0	192
HLD	39	0	7	192
XTP	39	192	6
TTP	40	0	5	B	0	L1
TTP	40	192	4	B	0	L1
TTP	41	0	3	B	0	L1
TTP	41	192	2	B	0	L1
XHO	42	0	0	96
XHO	42	0	1	96
HLD	42	192	6	96
HLD	42	192	7	96
STR	43	0	0
SI_	43	0	0	96	144	4
BRK	44	0	5
TAP	44	96	5
TAP	44	192	4
TAP	44	192	5
TAP	44	288	4
TAP	44	288	5
TAP	45	0	2
TAP	45	96	2
TAP	45	192	2
TAP	45	192	3
TAP	45	288	2
TAP	45	288	3
TAP	46	0	1
TAP	46	96	1
TAP	46	192	0
TAP	46	288	0
TAP	47	0	7
TAP	47	96	7
TAP	47	192	0
TAP	47	192	6
TAP	48	0	1
TAP	48	96	1
TAP	48	192	0
TAP	48	192	1
TAP	48	288	0
TAP	48	288	1
TAP	49	0	6
TAP	49	96	6
TAP	49	192	6
TAP	49	192	7
TAP	49	288	6
TAP	49	288	7
TAP	50	0	5
TAP	50	96	4
TAP	50	192	3
TAP	50	288	2
XTP	51	0	3
XTP	51	0	4
XTP	51	96	2
XTP	51	96	5
XTP	51	192	1
XTP	51	192	6
BRK	52	0	2
TAP	52	96	2
TAP	52	192	2
TAP	52	192	3
TAP	52	288	2
TAP	52	288	3
TAP	53	0	5
TAP	53	96	5
TAP	53	192	4
TAP	53	192	5
TAP	53	288	4
TAP	53	288	5
TAP	54	0	6
TAP	54	96	6
TAP	54	192	7
TAP	54	288	7
TAP	55	0	0
TAP	55	96	0
TAP	55	192	1
TAP	55	192	7
TAP	56	0	6
TAP	56	96	6
TAP	56	192	6
TAP	56	192	7
TAP	56	288	6
TAP	56	288	7
TAP	57	0	1
TAP	57	96	1
TAP	57	192	0
TAP	57	192	1
TAP	57	288	0
TAP	57	288	1
TAP	58	0	2
TAP	58	96	3
TAP	58	192	4
TAP	58	288	5
HLD	59	0	3	96
HLD	59	0	4	96
TAP	59	192	2
TAP	59	192	5
TAP	59	288	1
TAP	59	288	6
BST	60	0	0
SXL	60	0	0	96	480	3
BST	60	0	7
SXR	60	0	7	96	480	4
STR	62	0	5
SI_	62	0	5	96	144	0
TAP	63	0	1
TAP	63	96	1
TAP	63	192	0
TAP	63	192	1
STR	64	0	2
SI_	64	0	2	96	144	7
STR	65	0	6
SI_	65	0	6	96	144	2
STR	66	0	1
SI_	66	0	1	96	144	5
TAP	67	0	6
TAP	67	96	6
TAP	67	192	0
TAP	67	192	7
TTP	68	0	2	E	0	L1
TTP	68	96	2	B	0	L1
TTP	68	192	3	B	0	L1
TTP	69	0	6	E	0	L1
TTP	69	96	5	B	0	L1
TTP	69	192	4	B	0	L1
TTP	70	0	1	B	0	L1
TTP	70	96	2	B	0	L1
TTP	70	192	3	B	0	L1
TTP	70	288	4	B	0	L1
TTP	71	0	5	B	0	L1
TTP	71	96	6	B	0	L1
TTP	71	192	7	E	0	L1
TTP	72	0	2	B	0	L1
TTP	72	96	1	B	0	L1
TTP	72	192	1	E	0	L1
TTP	73	0	5	B	0	L1
TTP	73	96	6	B	0	L1
TTP	73	192	7	E	0	L1
TTP	74	0	2	B	0	L1
TTP	74	96	3	B	0	L1
TTP	74	192	4	B	0	L1
TTP	74	288	5	B	0	L1
TTP	75	0	0	C	1	L1
XHO	76	0	0	192
XHO	76	0	7	192
BRK	77	0	1
TAP	77	96	0
TAP	77	96	1
TAP	77	192	1
TAP	77	288	0
TAP	77	288	1
TAP	78	0	6
TAP	78	96	6
TAP	78	96	7
TAP	78	192	6
TAP	78	288	6
TAP	78	288	7
TAP	79	0	5
TAP	79	96	5
TAP	79	192	4
TAP	79	288	4
TAP	80	0	3
TAP	80	96	3
TAP	80	192	2
TAP	80	192	4
TAP	81	0	5
TAP	81	96	4
TAP	81	96	5
TAP	81	192	5
TAP	81	288	4
TAP	81	288	5
TAP	82	0	2
TAP	82	96	2
TAP	82	96	3
TAP	82	192	2
TAP	82	288	2
TAP	82	288	3
TAP	83	0	1
TAP	83	96	0
TAP	83	192	7
TAP	83	288	6
XTP	84	0	0
XTP	84	0	7
XTP	84	96	1
XTP	84	96	6
XTP	84	192	2
XTP	84	192	5
BRK	85	0	6
TAP	85	96	6
TAP	85	96	7
TAP	85	192	6
TAP	85	288	6
TAP	85	288	7
TAP	86	0	1
TAP	86	96	0
TAP	86	96	1
TAP	86	192	1
TAP	86	288	0
TAP	86	288	1
TAP	87	0	2
TAP	87	96	2
TAP	87	192	3
TAP	87	288	3
TAP	88	0	4
TAP	88	96	4
TAP	88	192	3
TAP	88	192	5
TAP	89	0	2
TAP	89	96	2
TAP	89	96	3
TAP	89	192	2
TAP	89	288	2
TAP	89	288	3
TAP	90	0	5
TAP	90	96	4
TAP	90	96	5
TAP	90	192	5
TAP	90	288	4
TAP	90	288	5
TAP	91	0	6
TAP	91	96	7
TAP	91	192	0
TAP	91	288	1
HLD	92	0	0	96
HLD	92	0	7	96
TAP	92	192	1
TAP	92	192	6
TAP	92	288	2
TAP	92	288	5
BST	93	0	3
SXR	93	0	3	96	480	0
BST	93	0	4
SXL	93	0	4	96	480	7
TAP	95	0	6
TAP	95	96	6
TAP	95	192	6
TAP	95	192	7
TAP	96	0	1
TAP	96	96	1
TAP	96	192	0
TAP	96	192	1
TAP	97	0	2
TAP	97	96	2
TAP	97	192	2
TAP	97	192	3
TAP	98	0	5
TAP	98	96	5
TAP	98	192	4
TAP	98	192	5
XTP	99	0	6
XTP	99	0	7
XTP	99	192	0
XTP	99	192	1
XTP	100	0	0
XTP	100	0	7
XTP	100	96	0
XTP	100	96	7
XTP	100	192	1
XTP	100	192	6
HLD	101	0	7	480
XTP	102	48	0
XTP	102	96	0
XTP	102	168	1
XTP	102	168	6

T_REC_TAP	232
T_REC_BRK	6
T_REC_XTP	48
T_REC_HLD	24
T_REC_XHO	7
T_REC_STR	5
T_REC_BST	4
T_REC_XST	0
T_REC_TTP	40
T_REC_THO	0
T_REC_SLD	9
T_REC_ALL	375
T_NUM_TAP	325
T_NUM_BRK	10
T_NUM_HLD	31
T_NUM_SLD	9
T_NUM_ALL	375
T_JUDGE_TAP	335
T_JUDGE_HLD	110
T_JUDGE_SLD	9
T_JUDGE_ALL	454
TTM_EACHPAIRS	86
TTM_SCR_TAP	162500
TTM_SCR_BRK	26000
TTM_SCR_HLD	31000
TTM_SCR_SLD	13500
TTM_SCR_ALL	233000
TTM_SCR_S	225050
TTM_SCR_SS	232000
TTM_RAT_ACV	10043

