VERSION	0.00.00	1.03.00
FES_MODE	0
BPM_DEF	190.000	190.000	190.000	190.000
MET_DEF	4	4
RESOLUTION	384
CLK_DEF	384
COMPATIBLE_CODE	MA2

BPM	0	0	190.000
MET	0	0	4	4

XTP	2	0	0
XTP	4	0	0
TAP	6	0	7
BRK	8	0	7
TAP	10	0	0
TAP	11	0	0
TAP	12	0	1
TAP	13	0	1
TAP	14	0	2
TAP	15	0	2
TAP	16	0	3
XTP	17	0	3
XTP	17	0	4
TAP	18	0	4
TAP	19	0	4
TAP	20	0	5
TAP	21	0	5
TAP	22	0	6
TAP	23	0	6
TAP	24	0	7
XTP	25	0	0
XTP	25	0	7
STR	26	0	7
SI_	26	0	7	96	288	4
XTP	28	0	0
XTP	28	192	0
BRK	29	0	0
STR	30	0	0
SI_	30	0	0	96	288	3
XTP	32	0	7
XTP	32	192	7
BRK	33	0	7
STR	34	0	7
SI_	34	0	7	96	288	3
TAP	36	0	0
TAP	36	192	0
BRK	37	0	0
STR	38	0	0
SI_	38	0	0	96	288	4
TAP	40	0	7
TAP	40	192	7
XHO	41	0	7	384
XTP	43	0	0
XTP	43	0	7
TAP	44	0	7
TAP	44	192	7
TAP	45	0	6
TAP	45	192	6
TAP	46	0	5
TAP	47	0	4
TAP	47	0	5
TAP	48	0	3
TAP	48	192	3
TAP	49	0	2
TAP	49	192	2
TAP	50	0	1
XTP	51	0	0
XTP	51	0	7
TAP	52	0	0
TAP	52	192	0
TAP	53	0	1
TAP	53	192	1
TAP	54	0	2
TAP	54	192	2
TAP	55	0	3
TAP	55	0	4
TAP	56	0	4
TAP	56	192	4
TAP	57	0	5
TAP	57	192	5
TAP	58	0	6
TAP	58	192	6
XTP	59	0	0
XTP	59	0	7
HLD	60	0	6	384
HLD	60	0	7	384
HLD	62	0	4	384
HLD	62	0	5	384
HLD	64	0	2	384
HLD	64	0	3	384
HLD	66	0	0	384
HLD	66	0	1	384
TTP	68	0	0	B	0	L1
TTP	68	0	1	B	0	L1
TTP	69	0	2	B	0	L1
TTP	69	0	3	B	0	L1
TTP	70	0	4	B	0	L1
TTP	70	0	5	B	0	L1
TTP	71	0	6	B	0	L1
TTP	71	0	7	B	0	L1
TTP	72	0	4	B	0	L1
TTP	72	0	5	B	0	L1
TTP	72	0	5	E	0	L1
TTP	73	0	2	B	0	L1
TTP	73	0	3	B	0	L1
TTP	73	0	3	E	0	L1
THO	74	0	0	384	C	0	L1
XTP	76	0	0
XTP	76	0	7
BRK	77	0	7
TAP	77	192	7
TAP	78	0	6
TAP	78	192	6
TAP	79	0	5
TAP	79	192	5
TAP	80	0	3
TAP	80	0	4
TAP	80	192	3
TAP	80	192	4
TAP	81	0	3
TAP	81	192	3
TAP	82	0	2
TAP	82	192	2
TAP	83	0	1
TAP	83	192	1
XTP	84	0	0
XTP	84	0	7
TAP	85	0	0
TAP	85	192	0
TAP	86	0	1
TAP	86	96	1
TAP	86	192	1
TAP	87	0	2
TAP	87	192	2
TAP	88	0	3
TAP	88	96	3
TAP	88	192	3
TAP	88	192	4
TAP	89	0	4
TAP	89	192	4
TAP	90	0	5
TAP	90	96	5
TAP	90	192	5
TAP	91	0	6
TAP	91	192	6
BRK	92	0	0
BRK	92	0	7
HLD	93	0	7	192
TAP	94	0	7
TAP	94	192	6
HLD	95	0	5	192
TAP	96	0	5
TAP	96	192	4
TAP	96	192	5
HLD	97	0	3	192
TAP	98	0	3
TAP	98	192	2
TAP	99	0	1
TAP	99	192	0
TAP	100	0	0
TAP	100	0	7
TAP	100	96	0
TAP	100	96	7
TAP	100	192	0
TAP	100	192	7
STR	101	0	0
SI_	101	0	0	96	288	3
STR	101	0	7
SI_	101	0	7	96	288	4

T_REC_TAP	93
T_REC_BRK	7
T_REC_XTP	20
T_REC_HLD	11
T_REC_XHO	1
T_REC_STR	6
T_REC_BST	0
T_REC_XST	0
T_REC_TTP	14
T_REC_THO	1
T_REC_SLD	6
T_REC_ALL	159
T_NUM_TAP	133
T_NUM_BRK	7
T_NUM_HLD	13
T_NUM_SLD	6
T_NUM_ALL	159
T_JUDGE_TAP	140
T_JUDGE_HLD	92
T_JUDGE_SLD	6
T_JUDGE_ALL	238
TTM_EACHPAIRS	22
TTM_SCR_TAP	66500
TTM_SCR_BRK	18200
TTM_SCR_HLD	13000
TTM_SCR_SLD	9000
TTM_SCR_ALL	106700
TTM_SCR_S	102850
TTM_SCR_SS	106000
TTM_RAT_ACV	10066

